&title=Future Coaster
&artist=削除
&des=心白-HW
&first=0
&lv_4=12+
&des_4=心白-HW
&inote_4=
(180){4},{1},{4},,,1h[8:11],
,,{8}8,8h[2:1],
{1},{4}7h[8:11],
,,{8}2,2h[2:1],
{1},{4}3h[8:11],
,,{8}6,6h[2:1],
{1},{4}5h[8:11],
,,{8}4,4h[2:1],
{1},{4}3/Ch[2:3],
3,3,3,
3,3,3,3,
3/Ch[2:3],3,3,3,
3,3,3,3,
3/4,3/4,4/3,3/4,
3/5,3/5,3/6,3/6,
{8}2,2,7,7,1,1,8,8,
{16}1,8,1,8,1,8,1,8,1,8,1,8,{4}1x>4[4:1],
,{8},6,5,7h[4:1],,3,
4,2h[4:1],,7,B2,B6,B3,B7,
C,{4},{16}1,8,{8}1,1h[4:1],{4},{8}B7/Cf/B3,
{4},{8}B2/Cf/B6,{4},8x<5[4:1],
,{8},{16}3,4,{8}3,2h[4:1],,{16}6,5,
{8}6,7h[4:1],,2,B6,B2,B7,B3,
{4}C,{8}8x/1x,2,8x/1x,7,8/1,6/3,
Cf/E2/E6,{4},{8}Cf/E8/E4,{4},{8}7<4[4:1],7,
3h[4:1],{4},,{16}3,5,3,5,3,5,
{8}3>8[8:1],{4},,{16}7,1,7,1,7,1,
{2}7-4[8:1],3-8[8:1],
{8}7xh[4:1]/1xh[4:1],{4},{8}2xh[4:1]/8xh[4:1],{4},6xh[8:1]/3xh[8:1],
{8}5/4,2,5/4,7,6/2,3/7,{16}1,8,1,8,
{4}1-4[8:1],{8}5,5-8[8:1],{4},,{8}4,
4,8,8,3,3,7,7,
{16}2,6,2,6,2,6,2,6,1,5,1,5,1p8<1[2:7],5,1,5,
{1}Cf,
,A8/D8/A7/E8/B7/B8,
B4/B5/A5/E5/D5/A4,
1-5V31[2:3],
B6/E7/D7/A6/D6/E6,
8-4V68[2:3],
A3/B3/E3/D3/E4/D4,
{4}B8,B7,B6,B5,
B4,B3,B2,B1,
2,3,4,5,
6,7,{16}8xh[8:3],{8},{16}1x,{8},1xs5[8:11],
{1}C,
,{2}4/3h[2:1],
B5,
{4}5/6h[2:1],5,{2}B4,
{8}3/4,5/4,5/6,7/4,,2/5,,3qq4[8:3]/6pp5[8:3],
{1},{8}5/2,
3,4,5/2,4/7,6,5,4/7-5[8:1],
,3,2,1V35[4:1],,8h[4:1],{4},{8}4/7,
5,6,4/7,5/2,4,3,2/5-8[8:1],
,3v6[8:1],,7h[8:3],{4},,{8}6/3,
4,5,6/3,2/7,8,1,7/2-4[8:1],
,7V51[4:1],,3h[4:1],{4},,{8}1/2,
2,2/3,3,3/4,4,5pp7[4:1]/4qq2[4:1],5/4,
{4},,{8}8-4[8:1]/1-5[8:1],8/1,{4},{1}Cf/6xq7b[2:1],
Cf/3xp2b[2:1],
{8}8x/1x,{16}2,7,2,7,2,7,3,6,3,6,3,6,3,6,
4x-8[8:1],{8},{16}5x-7[8:1],{4},{16}2x-4[8:1],{8},{16}1x-5[8:1],{4},3<6[4:1],
6<1[4:1],1>4[4:1],4<4[2:1],
{2}6h[4:1],{16}E7/A7/A6,{8},{16}E3/A2/A3,{8},Cf/B1/B8/B5/B4,
{1},{2}2h[4:1]/7h[4:1],
{4}1-4[8:1]/8-5[8:1],1b/8b,
{16}3,4,3,4,{8}3h[8:1],{16}8,1,8,1,{8}8h[8:1],{16}5,6,5,6,
{8}5h[8:1],{16}8,1,8,1,8-4-7[4:1],1,{4}8x,2x,
{16}1,8,1-5-2[4:1],8,{4}1x,7x,{16}8,1,8,1,
{8}8,{16}1x,2x,3x,4x,5x,6x,7x,8x,1x,2x,3x,4b,{8},{16}7,
3,7<4[4:1],3,{8}7,2xh[4:1],{4},{16}2,6,2>5[4:1],6,
{8}2,7xh[4:1],{4},{16}8,5,8<6p5[2:1],5,{4}8,
{1}4>2p8<6b[8:5],
{16}7h[8:1]/4h[8:1],{8},{16}5h[8:1]/2h[8:1],{8},6h[16:1]/3h[16:1],{16}4,5,4,5,{4}4xw8[8:1],
{1},E3,
E5,
{2}E7,E1,
{8}1,1h[8:7],{4},,,{8}3,
3h[8:7],{4},,,{8}5,
5h[8:7],{4},,,{8}7,
7h[8:3],{4},,,1-4V63[4:5],
8,8,8,
7,7,6,6,
5-8V27[4:5],4,4,4,
3,3,2,2,
2,2-5[8:1],1,1-4[8:1],
8,8-5[8:1],7,7-4[8:1],
{8}3-1[8:1],3,6-8[8:1],6,2,2,7,7,
{16}1,8,1,8,1,8,{8}1h[2:1],,E8,E7,E6,
&lv_5=14
&des_5=心白-HW
&inote_5=
(180){4},{1},{4},{48}E2,
B2,B3,B4,{24},{8}5,6,7,
8,2h[8:3],{4},{8}4,5,6,1h[4:1]/7h[4:1],
{4},2h[8:1]/8h[8:1],{8},4h[8:3],,5,
6h[8:3],{4},{8}8,1,2,3,4h[4:1]/5h[8:3],
{4},{8},6h[8:3]/3h[2:1],{4},,{8}6,
4h[8:3],{4},{8}8,7,6,5h[4:1]/3h[4:1],
{4},6h[8:1]/4h[8:1],{8},5h[4:1],{4},{8}4,
3,2,1,8,7,6,5h[2:1]/4h[2:1],
{4},,{8},5/4,3/6,2/7,
{4}1/8<5[8:1],1,2,{8}2/5-8[8:1],5,
{4}3,{8}3,8v5[8:1],{4}4,4,
4/5<8[8:1],4,3,{8}3/8-5[8:1],8,
{4}2,{8}2,5v8[8:1],{4}1,1,
8h[8:1]/1>4[8:1],8h[8:1],7h[8:1],{8}7h[8:1]/4-1[8:1],4,
{4}6h[8:1],{8}6h[8:1],1v4[8:1],{4}5h[8:1],5h[8:1],
{8}4,4,5,5,3,3,6,6,
{16}2,7,2,7,2,7,2,7,1,8,1,8,{4}1xh[8:17],
{8}Ch[4:1],{4},{8}B8,A7,B6,,B2,
A3,B4,,C,B8,B2,B6,B4,
4xh[8:7],{4},{16}B8,B1,{8}E2,B3,,B2,
{4}2x-4[8:1],{8}2x,1-6[8:1],,1-4[8:1],2,1,
8xh[8:15],{4},{16}B1,B2,{8}B3,E5,,{16}B7,B6,
{8}B5,E4,,{16}B8,B1,{8}E2,E7,E3,E6,
{16}5xh[8:7],{8},{16}B1,{8}B2,B8,B3,B7,B4,B6,
{4}6x-8[8:1],{8}6x,5>2[8:1],,5<8[8:1],6,5,
{16}4h[8:5],{4},,{8},{16}5,4,6,4,7,
4,8,3,8,2,8,1,8,2,7,3,6,4,5,3,6,
2,8,1,7,3,5,4,6,1,8,3,4,2,7,5,6,
{4}4x-2[8:1],{8}4x,8-6[8:1],,8-4[8:1],3,8,
{4}2h[8:1],{16}3,2,5,4,7,6,8,4,7,3,6,2,
{8}5bxpp7b[8:1],1bxpp3b[8:1],5bx,1bx,{16},,{128}E3/E7,{64},,,{128}E2,E6,{64},,,{128}E1,{4}E5,
{16}8,8,4,4,1,1,{24}5x,6x,7x,{16}2,2,{24}6x,7x,8x,2x,3x,4x,7,{48},{16}7,
4,8,4,8,3,7,3,7,{24}3x,2x,1x,7,{48},{16}1,{24}7x,6x,5x,1,{48},{16}5,
{8}1pp4[4:3],{4},,,{8}6,
{1}6qq8[4:3],
{8}2,2,2,2pp1[4:5],{4},,,{8}7,
7,{2}7-5[8:1],
{1}8q1[4:3],
6p4[4:3],
3qq5[8:13],
{4},{8}6,6,{2}6-1[8:1],
{8}8h[8:1],4,8h[8:1],{16}3,3,8h[8:1],{8},{16}2,{8}8h[8:1],1,
1h[8:1],8,1h[8:1],{16}7,7,1h[8:1],{8},{16}6,{8}1h[8:1],5,
1-4[8:1],5,1-6[8:1],6,1>4[8:1],{16}5,5,{8}1<6[8:1],7,
{16}1-5[8:1],{8},{16}5,{4}1V38-4[8:3],{16}1,{8},{16}4,{8},5,
{1}6xh[4:7]/3xh[8:13],
,{8}3,
4,5,3/6h[4:1],,2,,8/1h[4:1],
,7,6,3/5h[4:1],,4h[8:1],{4}5,
{8}4/5,2,4/5,7,5/3,1,4/6,8,
{16}3,5,2,6,4,7,3,6,{4}4>1b[8:1],{32}8bx/A4f,7x,6x,5x,{16},,{8}8bx/4bx,
{16}1,5,2,6,3,7,{8}4h[8:1],{16}8V63[4:1],8,{8}4h[8:1],8,
,2,1,8V25[4:1],,8,,7,
4h[8:1],{16}6,3,7,2,{8}6-1[8:1],1-5[8:1],6,{16}2,3,{8}4,
,3-7[8:1],{16}7V14[4:1],7,{8}3,,5,6,7<4[16:3],
3,{16}3/7,2,1,8,7,6,{8}1/5,4/8,3/7,6/2V47[4:1],
,2/7V51[4:1],8,8<3[4:1],,8,,8>3[16:3],
4,{16}4,5,6,7,8,1,2,3,4/8,5/1,6/2,7/3,{8}4h[2:1]/8h[16:9],
{4},,{16}4,8,3,7,2,6,1x>5[4:1],2x>6[4:1],
{8}Cf/3x<7[4:1],{4},,,{16}8x<4[4:1],7x<3[4:1],
{8}Cf/6x>2[4:1],{4},,,{16}1,2,
3h[8:1],{8},{16}8,3,7,3,6,{24}3x,2x,1x,8x,7x,6x,{16}5/1,8/4,3/7,2/6,
{8}1h[8:1],{16}5,2h[8:1],,6,3,7,4,8,3h[8:1],7,,6,2,5,
1,2,3,4,8,1,2,3,7,8,1,2,3/4,5,6,7,
{8}8h[16:3],{16}5,4,3/7,2/6,{8}1/5,1xh[8:1],{16}6,1xh[8:1],,7,1x,8,
1,8,1,8,1,8,1,8,1,8,1,8,1,8,1,8h[4:1],
{4}1xh[16:5],{16}7,6,{32}2x,3x,{16}4x,{8}6h[16:1],{32}3x,2x,{16}1x,{48}E7,B6,B5,B4,{16},,{24},{16}4x/3xh[4:1],
5,6,7,{8}8,{16}1x/8xh[4:1],2,3,4,{8}5,{16}5x/6xh[4:1],4,3,2,
{8}1,{16}8,7,1,2,7,6,2,3,4,5,1,2,3,4,
8,1,2,3,7,6,5,4,8,7,6,5,1,8,7,6,
{8}5h[8:1],{24}1,2,3,{16}4h[16:1],5,4h[16:1],6,4h[16:1],7,4h[16:1],6,4h[16:1],5b,{8},{16}4,
3,2,8,7,6,{24}3,2,1,7,6,5,1x,{48},{16}5x,1,2,3,5,
6,7,{24}2,3,4,6,7,8,4x,{48},{16}8x,3,3,7,7,2,2,6,6,
1,1,5,5,8h[16:1],{32}4,5,6,7,{16}8h[16:1],{32}1,2,{16}3,4,5,3,6,2,7,
{8}1h[16:1],{16}1,8h[16:1],,8,{8}1h[16:1],{16}1-5b[8:1],7,3,5,{4}1bs5V71V35[1:4],
{1},,,{4},,{8},D7,
A7,D8,
{1}8-5<4v1[4:7],
,4V62-8<2[2:3],
{4},,{8},{16}8x,7x,{4}6x,
5/1h[8:1],5,5,5/2h[8:1],
6,{8}6,3h[8:1],{4}6,6,
7/4h[8:1],7,7,7/3h[8:1],
8,{8}8,2h[8:3],{4}8,8,
{8}1/7h[8:1],1,2,2,3,3,4/6h[8:1],4,
5,5,6,6/3h[8:1],7,7,8,8,
{16}3,7,5,7,1,7,5,7,2,6,4,6,8,6,4,6,
{24}2,3,4,5,6,7,8,1,2,7h[4:1]/3V52-8[8:3],{16},,,{48},{8}3b,8b,6b,
