&title=ジゼル
&artist=葉月ゆら
&first=0
&des=おにねこ
&lv_5=13+
&inote_5=(137)
{1},
{8}
1V74[8:4]*V73[8:4],,,,,,,,
{16}
6h[16:3],,,5h[16:3],,,4<7[8:2],,,,,,,,,,
3h[16:3],,,4h[16:3],,,5>2[8:2],,,,,,,,,,
7h[16:3],,,6h[16:3],,,5h[8:1],,4<7[16:2],,,,3h[8:2],,,,
2h[16:3],,,3h[16:3],,,4h[8:1],,5w1[8:1],,,,5b,,,,
5,6,7,8/1h[16:2],,6,7,8,1<6[8:1]/2h[8:1],,,2,,,3,,
4,3,2,1/8h[16:2],,3,2,1,8>3[8:1]/7h[8:1],,,7,,,6,,
5<8[8:1]/1,,2,,3,,4,,5>2[8:1]/1,,,6,6,,5,,
4,3,3,,4,4,,5,5,,6,6,,5,54,,
{8}6/3<6[8:2],,,2,3<6[8:2]*>8[8:2],,,,,7,6,5,
4h[8:4],5,6,7,8p4[8:2],,4p8[8:2],,8<5[8:2],,5>2[8:2],,1s5[8:3],,,7,7h[8:4],,,,
6>3[16:5],,,2,2h[8:4],,,1,1>6[8:4],,,6,6,7,7h[8:2],,8<3[8:4],,,2,2h[8:4],,,1,1p4[16:5]*q6[16:5],,,,,,3b/7b,2,
{16}6h[8:2]/4,,1,,3,5,8,,2h[8:2]/4,,7,,5,3,8,,6,5,7,4,6,,4,5,3,,24,,3,5,2h[8:1],,
4,3,7h[8:1],,5,6,1h[8:1],,4,3,8h[8:1],,4,6,1h[8:1],,5,3,4,2,5,3,6,6,3,5,4,7,5,6,,7,
68,,7,5,6,6,,4,35,,2,4,3,3,,5,46,,7,8,6,6,,1,82,,3,4,3h[16:3],,,
6,7h[16:3]/4,,,3,2h[16:3]/5,,,7,8h[16:3]/4,,,2,1h[16:4]/5,,,,4,,{24}14,25,36,{16}4s8[16:6]/7,,8,,1,,2,,3,,4,,
{8}5qq1[8:4]/1,,,,8<3[8:4],,,,{16}3,,,2V46[8:2],,,1,,8v5[16:3],,,,,,,,
{8}3p8[16:7],,,,5-2[16:3],,,,{16}6V82[8:2],,,5,,,4,,3h[8:2],,,,7h[8:2],,,,
5,6,4,5h[16:3],3,,2h[8:1],,4,3,5,4h[16:3],6,,7h[8:1],,
4,6,3,5h[16:3],2,,1h[8:1],,5,3,6,4h[16:3],7,,8h[16:4],,
2,3,4,5,1,8,7,6,3,3,4,4,5,5,6,6,4b,6b,2b,4b,1b,,5b,3b,7b,5b,8b,,1-5[8:1]/6,,,,
1b/2b-7[8:1],,,,2b/4b-8[8:1],,,,6b-2[16:1]/4b,,,6b/1b-4[16:1],,,1b<6[16:2],,,,
5,,4,,3,3,7>2[8:1],,3>8[8:1],,,,,,
5b-1[8:1],,,,5b/8b-4[8:1],,,,2b-6[16:1]/8b,,,2b/7b-1[16:1],,,7bV53[16:3],,,,
3,,2,,1,1,5<1[8:1],,1>5[8:1],,,,,,,,
3,3,4,3,5,2,2-5[8:1],,1,1,2,,,,78,,6,6,5,6,4,7,7-4[8:1],,8,8,7,,3,,
1-5[16:2]/2,,,5V74[16:3],,,4-8[8:1],,,,3,,2,,1,1p8[8:3],7h[8:1],,,6h[8:1],,,5h[8:1],,,4h[16:3],,,
3<6[8:1],,,,3b/1bq5[8:1],,,,1b/7bp3[8:1],,,,7b/2b>5[16:1],,,2b/8b<5[16:1],,,8bv3[16:2],,,,
7,,6,,5,5,3v5[8:1],,5-2[8:1],,6,,7,,
8bp4[8:1],,,,8b/2b<7[8:1],,,,2b/6b>3[16:1],,,6b/2b-5[16:1],,,2bV83[16:3],,,,
7,,6,,5,5,4-1[8:1],,4v7[8:1],,,,,,,,
6,5,7,4,4,,3/1<6[8:1],,2,2,1,,,,4h[8:1]/3,,2,,5/1h[8:1],,6,,7/8>3[8:1],,6,6,8,,5,,
6/4V28[16:3],,,8V26[16:3],,,6-2[16:2],,,5,,,7,,,,81,81,81,81,,72,,,8-4[8:1]/1-5[8:1],,,,8b/1b,,,,
{4}6h[4:2],,5h[4:2],,4h[4:2],,3<6[8:3],,,
2h[4:1],3h[4:1],4h[4:1],5h[8:3],{16},,6qq6[16:5]*q6[16:5],5,6,,,,
{8},,
2h[8:8],,3,,4,,5,,6h[8:8],,5,,4,,3,,2pp2[16:7],,1,,8,,7,,6pp5[16:9],,5,,4,,3,,
{12}2/1b,3,4,5/8b,4,3,2/7b,3,4,5/6b,4,3,
{16}2/8,,2q6[8:1],1,,1,2,,8,,7p3[8:1],8,,8,7,,1,,2>5[8:1],8,,8,2,,7,,6>3[8:1],1,,1,6,,2,1,3,8,4,7,5,5,6,5,7,4,8,3,1,1,2,2,3,3,4,4,5,5,6,6,7,7,8,8,1,1,
2,,2-4[16:1],1,,1,2,,6v1[8:1],5,7,5,6,,3,,34,,3-1[16:1],4,,4,3,,7v4[8:1],8,6,8,7,,2,,12,,2-6[8:1],1,3,8,2,,7-3[8:1],8,6,1,7,,4,,
6,6,4,4,2,2,8,8,7,7,1,1,3,3,5,5s1[8:3],7,,,,,,,,,,,,,,,,
{16}3,4,5,6,,3,4,5,6,,,,,,,,6,5,4,3,,6,5,4,3,,,,,,,,
2,3,4,5,,2,3,4,5,,,,,,,,7,6,5,4,,7,6,5,4-8[8:1],,,,3b/4b,,,,
{16}3>8[8:1],4,5,6,,5,6,7-3[8:1],8,,,74,,,1,,
2>5[8:1],1,8,7,,8,7,6-2[8:1],5,,,61,,,3,,
4>1[8:1]/8,,7,,6-2[32:3]/4,,5,,4<7[8:1]/6,,,3,4,,2,,
5,6,6,,5,5,,4,4,,3,3-6[8:1],,4,4,,
