&title=Eviternity HT
&artist=XYRIS
&first=4.16
&des=xyuu for all dedicated
&des_5=
&lv_5=15?
&inote_5={4}(187.5),,,,{1}C,,,,,,,,Ch[2:1],,,,,,,,1h[1:14],,B7,,B6,,B5,,B4,,B3,,B2,,{8}8,{4},{8}7,{4},6,{8},5,{2},{32}2,3,4,5,6,7,8,1,{1}6h[4:7]/2h[4:7],,{16}3,4,{8}2,{16}6,5,{8}7,2/1,{16}3,4,{8}2,7/8,{16}6,5,6,5,{8}6,{16}6,3,{8}6,{16}6,8,{8}6,6/2,{1}3h[4:7]/7h[4:7],,{16}6,5,{8}7,{16}3,4,{8}2,7/8,{16}6,5,{8}7,2/1,{16}3,4,3,4,{8}3,{16}3,6,{8}3,{16}3,1,{8}3,3/7,{1}2h[4:7]/6h[4:7],,{16}1,4,{8}3,{16}8,5,{8}6,2/7,{16}1,8,{8}1,2/7,{16}1,5,2,4,{8}3,{16}6,5,{8}6,{16}3,4,{8}3,2/7,{1}1h[4:7]/5h[4:7],,{16}7,8,{8}5,{16}2,1,{8}4,2/7,{16}8,1,{8}8,2/7,{16}6,5,7,4,{8}8,{16}2,1,{8}2,{16}7,8,{8}7,3/6,5bh[4:1]/4bh[4:1],{4},{32}1b/5bh[2:1],2,3,4h[32:13],{2},{8}5bh[4:1]/4bh[4:1],{4},{32}8b/4bh[2:1],7,6,5h[32:13],{2},{8}4bh[4:1]/5bh[4:1],{4},{32}1b/8b,7/2,6/3,4h[32:13]/5h[32:13],{2},{8}4bh[4:1]/5bh[4:1],{4},{32}8b/4b,7/3,6/2,5h[32:13]/1h[32:13],{2},{64}2,{32},{64}3,{32},4,{16},{64}8,{32},{64}7,{32},6,{16},{32}3,4,{16}5,{64}1,{32},{64}8,{32},7,{16},{64}2,{32},{64}3,{32},4,{16},{32}8,7,{16}6,{32}1,2,3,4,{16},{32}7,6,5,4,{16},{48}8,1,2,3,{24},{32}8,7,6,5,{16},{32}1,2,3,4,{16},{48}1,8,7,6,{24},{32}2x,3,4,5,2x,1,8,7,2x,3,4,5,2x,1,8,7,2x,3,4,5,2x,1,8,7,2x-6[8:1],3,4,5,2x,1,8,7,{1}2x/Cf,{32}1,2,3,4,{8},{32}2,3,4,5,{8},{16}1,8,1,2,1,8,1,2,1,4,3,4,1,5,4,5,2,4,3,4,1,5,4,5,2,4,3,4,{4}1,{16}2,4,3,4,1,5,4,5,2,6,5,6,1,5,4,5,2b,6,5,6,1b,6,5,6,{2}1bh[4:1],{32}8/Cf,7,6,5,{4},{8},{32}8/Cf,1,2,3,{4},{8},{32}8/Cf,7,6,5,{4},{8},{32}8/4,5/1,6/2,7/3,{4},{8},{32}8/Cf,7,6,5,{4},{8},{32}8/Cf,1,2,3,{4},{8},{32}8/Cf,7,6,5,{4},{8},{32}2,3,4,5,{8},{32}1,2,3,4,{8},{16}8,7,8,7,8,7,8,7,{32}1,2,3,4,{8}8,{32}1,2,3,4,{8}8,{32}1,2,3,4,{8}8,{32}2,3,4,5,{8}1,{32}3,4,5,6,2,3,4,5,{4}8b,{16}8b,6,5,6,1b,5,4,5,8b,4,3,4,2b,1,3,8,4b,5,2,7,3b,6b,1b,7b,{2}4bp8[0.64##0.32]/8p4[0.64##0.32],4<7[0.64##0.32]/8>3[0.64##0.32],{1}4p8>2-6[0.64##0.64]/8p4<6-2[0.64##0.64],{2},{32}8/1,2/7,3/6,4/5,{4},{8},{16}2h[16:3],{8},{16}3h[16:3],{8},4h[8:1],{16}8h[16:3],{8},{16}7h[16:3],{8},6,3,2-6[8:1],4,2,7-5[8:1],8-4[8:1],7-3[8:1],8,7,8<5[8:1],1,2,3>8[8:1],4,5<8[8:1],4,3,2-6[8:1],1,8,7-5[8:1],8-4[8:1],7-3[8:1],8,7,8<5[8:1],1,2,3>8[8:1],4,5-2[8:1],6,7,8-3[8:1],4,3,2-4[8:1],1-5[8:1],2-6[8:1],1,2,1>4[8:1],8,7,6<1[8:1],5,4>1[8:1],5,6,7-3[8:1],8,1,2-4[8:1],1-5[8:1],2-6[8:1],1,2,8,1,2/1,3/8,4/7,{4}5-1[8:1]/6-2[8:1],{8}5/6,{4},{8}4/3,{4},{8}3/8,7/4,5/6,{16}4,5,{8}3,2/7,{16}8,1,{8}8,{4}2/7,{16}3,4,3,4,{8}3,{16}6,5,6,5,{8}6,{16}2,1,3,8,{8}4,{16}7,8,6,1,{8}5,1/2-6[8:1],3,2/1-5[8:1],8,{16}1b/2b,3,{8}4-7[8:1],3,2,1>4[8:1],8,7,6<1[8:1],5,4,3,2,{16}1/5,2,3,4,5/1,6,7,8,1/5,2,3,4,5,6,7/3,8,1,2,3,4,5/1,6,7,8,1/6,7,8,1/5,6,7,{32}8/4,5,6,7,{16}3/8,2,1,8/4,3,2,{32}1/5,4,3,2,{1}8w4[1.28##2.56]/1w5[1.28##2.56],,,,,,{8}E8,E4,E6,E2,,E7,C,E3,{4}1h[4:1],2,{8}7,8,1,2,{16}3,2,1,8,7,6,5,4,7,6,5,4,3,2,1,8,{8}7/1,{16}3,4,{8}3,2,8/3,{16}6,5,{8}6,7,{16}3,2,1,8,7,6,5,4,7,8,1,2,3-1-4[4:1],4,5,6,{4}3/7-3-6[4:1],7,{2}8b,{16}6,7,8,1,2,3,4,5,2,3,4,5,6,7,8,1,{8}2/8,{16}6,5,{8}6-2[8:1],7,{2}6/4h[2:1],{16}6,7,8,1,2,3,4,5,3,2,1,8,7,6,5,4,{8}3/5,7,4/6,2,{32}8,7,6,5,4,3,2,1,{4}8,{16}3,2,1,8,7,6,5,4,7,6,5,4,3,2,1,8,{8}7/2,{16}3,4,3,4,{8}2,{16}6,5,6,5,{4}7,{16}3,2,1,8,7,6,5,4,6,7,8,1,2,3,4,5,{4}6,{32}2,3,4,5,{16}8/6,8,8,8,{4},{8},{16}6,5,4,3,2,1,8,7,2,1,8,7,6,5,4,3,{4}2/7,{16}3/4,4,2,7,{2}7/8,{16}3,4,3,2,3,4,{8}3,{16}7,8,7,6,7,8,{8}7,{16}2,1,3,8,4,7,3,6,{32}2,3,4,5,6,7,8,1,2,3,4,5,6,7,8,1,2,B2,C,B6,{1},,,,,,,{4},,,{8},4,{4},{8}2,{4},3,{8},4,{4},6,5,{8}4,{4},{8}7,{4},6,{8},5,{4},{8}2,3,4,5,6,{4},{8}8,{4},7,{8},5,{4},2,3,{8}4,{4},{8}1,{4},8,{16}7,8,7,1,8,2,1,2,{2}4h[4:1]/5h[4:1],{4}1/8h[4:5],2,3,{8}4,4,,2,{4}2,{2}1h[4:1]/7h[4:1],{32}1,2,3,4,{16}8,8,{32}2,3,4,5,{16}1,1,1,1,{32}7,6,5,4,{16}1,1,1,1,{32}2,3,4,5,6,7,8,1,{8}2,{16}6,5,{8}6,{16}3,4,{8}3,2,{4}8/1h[4:5],7,6,{8}5,5,,7,{4}7,{2}8h[4:1]/2h[4:1],{32}2,3,4,5,{8}7,{16}6,5,{8}6,7/2,{16}1,8,{8}1,2,{32}8,7,6,5,4,3,2,1,{8}8,{32}2,3,4,5,{8}7,{32}2,3,4,5,{8}7,6,{4}5/4h[4:5],6,7,{8}8,8,,6,{4}6,{2}5h[4:1]/3h[4:1],{32}3,2,1,8,{16}7,7,{32}2,3,4,5,{16}8,8,{8},{32}7,6,5,4,{16}1,1,1,1,{32}2,3,4,5,6,7,8,1,{8}2,{16}6,6,4,4,5,5,3,3,{8}7,{4}1/2h[4:5],8,7,{8}6,6,,8,{4}8,{2}3h[4:1]/7h[4:1],{16}2,8,1,1,2,8,1,1,{32}8,7,6,5,{16}2,2,{32}1,8,7,6,{16}2,2,{32}8,7,6,5,4,3,2,1,8,7,6,5,4,3,2,1,8,7,6,5,4,3,2,1,8,7,6,5,4,3,2,1,{4}8/4,{8}2/1,8,{4}7/1,3/5,6/1,{8}7/8,1,{4}2/8,4/6,4/7,{8}6/5,4,{4}3/5,1/7,2/5,{8}3/4,5,{4}6/4,2/8,{16}4b/6b,{8},{16}5/4,{8},4/2,{16}3b/5b,{8},{16}5/1,{8},5/7,{16}6b/4b,{8},{16}7/3,{8},2/1,{16}3b/5b,{8},{16}1/6,{8},7/8,{16}2b,1,2,8,2,1,2,7,2,1,2,6,2,1,2,5,{32}2,1,8,7,6,5,4,3,{4}2,{2}3/6,{8}4/6,2,3/5,7,4/6,2,7/8,6/1,5,4,2-5[8:1],1,7-4[8:1],8,1-5[8:1],2,{4}3-1[8:1],3-6[8:1],,{8}7/8,8/1,3,5,6/1-5[8:1],2/8,{4}1/3-7[8:1],3,{8}5/3,8,6/4,2,5/3,7,2/1,3/8,7,6,4-8[8:1],3,5-1[8:1],6,,3,2/8,6,7/1,3,{4}2/6,{8}5b/1b,3b/7b,2,1,8/7-3b[8:1],6,7/1-5b[8:1],2,7/1-7[8:1],8,1-6[8:1],4,1-5[8:1],3,1-4[8:1],2-6[8:1],{4},{8}8,7,3/6,1,1/2,8/3,4/7,5/6,7/2-6[8:1],8,2-5[8:1],7,2-4[8:1],6-8[8:1],{4},{8}5,1,5/1-5[8:1],7/3,5/1-3[8:1],6,1,4,8/6,5,1/3,4,6/8,5,2/7,3/1,4,5,6/1,2/7,3/8,1/6,2/5,4/7,1/8-4b[8:1],7,8/2-6b[8:1],3,2/8,1,2/3,2/1,{32}1/8,7,6,5,{16},{32}8/1,2,3,4,{16},{8}5/7,{32}8,7,6,5,{16},{32}7,6,5,4,{16},{8}1/2,{16}3,4,3,4,{8}2/5,{16}8,7,3,5,4,6,5,7,8,6,1,5,2,4,{8}3/5,{16}8,7,2,6,5,6,1,5,{8}4/3,{16}2,1,3,8,{8}4/7,{16}2,4,3,6,5,6,3,4,2,6,5,6,4,7,{8}3/8,{24}1,2,1,2,1,2,1,2,1,{96}{32}3/8,7,{16}6,{8},{32}1,2,3,4,1,2,3,4,{8}1/5,{16}8,7,4,6,3,5,2,1,4,8,5,7,3,4,{8}2/5,{16}1,2,8,3,4,3,7,4,5,4,{32}8,7,6,5,8,7,6,5,{8}4/8,{16}7,6,5/1,4/8,3,2,{32}1,2,3,4,5,6,7,8,{16}1,8,7,6,{8}5/3,1/2,{24}4,5,3,4/2,{12},{24}1,2,8,1/7,{12},{16}6,5,6,5,{8}4/7,{16}2,1,3,8,4,7,6/2,1/7,8,7/1,6/2>4[8:1],5,4,3,{8}2<8[8:1],{16}6,5,{8}2-6[8:1],{16}6,5,{8},{16}5,4,{8}8/3>1[8:1],5,3-7[8:1],5,,{16}4,5,{8}2b/6b,4b/8b,{16}3,4,3,4,{8}2/5,{16}1,6,{48}{24}8,7,8,7,8,7,{4}1/6,{16}2,1,3,8,{8}4/7,{16}1,6,2,5,3,4,1,6,5,7,3,4,2,7,{8}8/6,2,{32}3,3,4,5,8,8,7,6,1,1,2,3,{8}7,{4}4/5,{16}3/6,2,1,8,{48}{24}5,6,7,8,1,2,{96}{32}6,5,4,3,7,6,5,4,2b,3,{16}4,,{32}1b,2,{8}3,{32}1b,8,7,6,3b,4,5,6,{16},{32}8b,7,6,5,{16},{32}1b,8b/2b,3b/7b,4b/6b,{1}5bw1[4:15],,,,Ch[1:2],,,,{4}4,2,3,{8}6,5,,4,5,4,7,6,5,4,{4}2,5,3,{8}6,5,,4,5,4,{4}3,1,6,5,4,{8}3,4,,2,3,4,7,6,5,4,{4}6,6,7,{8}1,2,{24}{6}7h[6:1],6h[6:1],5h[6:1],3h[6:1],4h[6:1],Ch[6:1],
