&title=Reunite
&artist=月代 彩
&first=5.13
&des=もとなり
&clock_count=
&lv_5=13+
&inote_5=(42)
{12}6>3[12:2]/2h[12:1],5,4,6h[12:3],,,1>4[12:2],2,3,8<5[12:2],7,6,
2-6[12:2],3,4,{24}2,,,E5,E4,E3,{12}1>1[12:2]*<1[12:2],,,,,,
3<6[12:2]/7h[12:1],4,5,3h[12:3],,,8<5[12:2],7,6,1>4[12:2],2,3,
7,6,5,4,3,2,1-5[2##3.12]/B5,(41)7/E4,(40)2/E6,(39)8/B4,(38){48}1-5[12:3]b/C,,,,,,,,,,,,,,,,,,,,,,,,(37),,,,
,,,
(66)
{24}2/5,,3,4,3,4,3,,2,,1,,2>5[12:2],,,,,,A2,,,,,,
7/4,,6,5,6,5,6,,7,,8,,7<4[12:2],,,,,,A7,,,,,,
2h[12:6],,E3,,E4,,E5,,,,,,7h[12:6],,E7,,E6,,E5,,,,,,
4h[12:6],,E5,,E6,,E7,,,E8,,,8-4[12:2],,,,,,,,,,,,
7,,6,5,6,5,6,,7,,8
,,7p4[12:3],,,,,,C,,,,,,
2,,3,4,3,4,3,,2,,1,,2q5[12:3],,,,,,C,,6hx[24:1],,7hx[24:1],,
8x-5[12:2],,1,,1,,2-7[12:2],,,,3h[48:1],,4-1[12:2],,,,5,,6-3[12:2],,7,,7,,
8-5[12:2],,7,,7,,8-3[12:2],,1,,1,,8s4[12:2]b,,,,,,,,,,,,
{8}8-2[8:1],B7,6-8[8:1],B5,4-6[8:1],B3,{12}2-4[8:1],E2,E1,
{8}8x-5[8:1],E7,{12}1-4[8:1],A2,A3,{8}7z3[12:2],A6,,,
{12}1-5[12:2],,,2-6[12:2],,3,3-7[12:2],,,{8}4-8[12:2],4,
{12}5-1[12:2],,,6-2[12:2],,7,7-3[12:2],,,,,,
1-6-3-7[12:3],2,3,1,B8/E1,E2/B2,5-2-7-3[12:3],6,7,5,B4/E5,E6/B6,
7<2[4:1],8,1,2<5[4:1],,6,5s1[4:1],,,,,,
{24}2-4-6v3[4:1],,4,3,5,2,6,,7,,8,,7-5-3v6[4:1],,5,6,4,7,3,,2,,1,,
{12}2,3,4,5qq1b[62#24:8],6,7,
(62)
8h[12:5],,,,,,
(66)
{24}2b>4[6:1]/6b,,2,1,8,7,2/6v1[6:1],,5,,5,,6/3q7[6:1],,2,,2,,3h[96:25],,,,,,
6v1[6:1],,7,8,1,2,6/3<8[6:1],,2,,2,,3h[8:1],,,,,,1<7[8:1]/5>3-1[4:1],,,3/7-5[8:1]
,,,1pp8[4:1]/5,,,,,,,,,,,,6-3-7-4[4:1],,3,,7,,4h[6:1],,,,,,
2>7[4:1],,1,,8,,7>4[4:1],,,,3,,4-8[6:1],,,,,,C,,,,,,
6/3h[12:1],,5,4,3,2,3/4,,4/6,5,4/6,,7/5h[12:1],,6,,5,,6/4,,5,3,,,
E5/3h[6:1],,E6,,E7,,E8/4h[12:1],,A7,,2,,3h[6:1]/B8,,B7,,E7,,E6/4,,E5/3,,{60}E4/2,,,B5,B6,
{24}B7/1-4[12:1],,2-6[12:1],,3,,,,,,,,7h[6:1]/5-2[12:1],,4-8[12:1],,3,,,,,,6,,
5/6h[4:1],,,,5,,4h[4:1],,,,3,,3h[6:1],,2,,1,,8b,,,,,,
2x>6<7>8>1>2[5:3]/6x<2>3<4<5<6[5:3],,,,,,,,,,,,,,,,,,,,,,,,
3-7[12:1],,2,,2,,5<8[12:1],,6,,6,,4qq1[6:1],,3,,3,,,,,,,,
{12}8-4[12:2],,,7-3[12:2],,7,6v1[12:2],,,5<8[12:2],,{24}5,5,
{12}4v6[12:2],4,4,3v8[12:2],,3,2>6[12:2],,,,,,
{24}7/3-8[12:1],,8-2-7[6:1],,2,8,3/7>4[4:1],,,,5,,6-2-8-4[6:1],,,,,,B5,,B3,,C,,
{12}2<5[4:1],3,4,5>8[4:1],,1,8pp5[6:1]*pp5[6:1],,,,,,
2q6[6:1],1,1,8q4[6:1],,7,6qq8[6:1],5,5,4x,3x,2x,
(55)1-5[1.1##1.275],(54)8,(53)2,(50)7,(47)3,6,4-8[1##1.3],(45)5,(30)3w7[4:1],(15.8)3,,,
(20)1b,(27)2h[12:1],(28.5)3h[12:1],(27)4h[12:1],5h[12:1],(29)6h[12:1],
(26.4)7h[12:1],(14.8)8w4b[4:1],,A1f,,,,,,,,
