&title=リライト
&artist=ASIAN KUNG-FU GENERATION
&first=0
&des=某M氏
&lv_5=13+
&inote_5=(179){4},,,,{1}4V68[4:3],
,5V71[4:3],
{4}2-6[8:1],3-7[8:1],4-8[8:1],6b,
1/7,2/5,{8}5,5,{4}7/3,
{8}5,6,7/4,8,3,4,{4}2/5,
5/2,5/3,{8}6,5,{4}7/4,
3/7xh[8:1],2/7xh[8:1],{16}1,8,1,8,{4}1b,
2/6-2>5[8:3],{8}2,1h[4:1],,,,8-4[8:1],
,8,{4}2>5[8:1],{2}2,
{4}6/7>2[8:1],{8}7,3h[4:1],,1<6[8:1],4,1,
,4,{4}5-2[8:1]*-1[8:1],,,7/3-7<4[8:3],
{8}7,8h[4:1],,,,1-5[8:1],
,1,{4}7<4[8:1],{2}7,
{8}1/2,3/1,,8/7,{4}6/8,{8}2/7,2/7,
3xh[8:1],{16}5,2,{8}6xh[8:1],{16}5,8,2b,8b,3b,1b,{4}Cf,
2xh[4:3],{8}3,3,,8,{4}8,
7h[8:5],{8}6,6,,6,5,4>1[8:3],
{4}4,{8}8pp3[1:1],8,,,7<4[2:1],7,
,,,,,,{4}2/6,
4/5h[4:3],{8}7,7,,3,{4}4,
5/4h[4:3],{8}2,2,,,5,6pp1[4:3],
{4}7,{8}3,3,,2<7[8:5]*v4[8:5],{4}2,
,,,6/5p1>4[2:1],
{8}C,,,A8/B8/E8,,,{4}7/5p8>3[2:1],
{8}C,,,D8/E8/A7,,,8-4[4:1],8,
{4}4>2[4:1],{8}2-6-8[2:1],2,,,8-4-8[8:5],8,
,,,,,,{4}3q7[4:1],
{8}3h[4:1],,,A8/E8/B8,,,{4}6p2[4:1],
{8}6h[4:1],,,A1/B1/E2,,,3,3,
{4}2/4,6/4,6/8,8h[8:1]/2h[8:1],
5h[8:1]/3h[8:1],4h[8:1]/3h[8:1],{16}2,4,3,5,4,6,5,7,
{4}6bv4[8:1],{8}1,1-7[8:1],,,,3<6[8:1],
,3,{4}8p4[8:1],{2}8,
{8}1/2,2/1h[4:1],,2,3,4-6[8:1],5,4-7[0.5028##0.1676],
,,{4}5-2[8:1],5-1[8:1],5,
7/3-7<4[8:3],{8}7,8h[4:1],,,,1-5[8:1],
,1,{4}7<4[8:1],{2}7,
{4}3/2<7[8:1],{8}2,6h[4:1],,8>3[8:1],5,8,
,5,5x,{16}6,7,8,1,2,3,4,5,6,7,
{4}8bx/1q6[4:1],{8}7,7h[8:3],,,{4}8,
2/8p3[4:1],{8}2,2h[8:3],,,1,1,
{4}1p2[8:3],{8}2,2>8[8:5],,,1,1h[8:5],
,,,,,,{4}7/3<5[8:1],
3/6>3[8:1],{8}7,7h[8:1],,,{4}6/2>4[8:1],
2/5>2[8:1],{8}6,6h[8:1],,,8,7pp2[8:5],
{4}7,{8}5,5,,3,{4}3,
{8}3/2,3,1/4,1,{16}8x,7,6,5,4,3,2,1,
{4}8v3[8:1],{8}2,1>4[8:1],,5,{4}6<1[8:1],
4,{8}4,3v6[8:1],,7,8,1,
{4}1V35[4:1],5V71[4:1],1V35[4:1],5z1[2:1],
,,,1/3q7[8:1],
8<5[8:1],{8}1,2q6[8:1],,6,{4}7>2[8:1],
4>1[8:1],{8}4,7,,6,7/4,6,
3/5,1,4/6,8,7/1,5,8/2,4,
1b/8b,8bx/1b,1b/8b,8bx/1b,{4}8b/1b,C,
{32}1x/Cf,2,3,4,5,6,7,8,1,2,3,4,5,6,7,8,1,2,3,4,5,6,7,8,1,2,3,4,5,6,7,8,
1,2,3,4,,,,,,,,,,,,,{4}8bxz4b[8:1]*-5b[8:1],8b,
{32}5x,4x,3x,2x,1x,8,7,6,5,4x,3,2,1,8,7,6,5,4x,3,2,1,8,7,6,5,4x,3,2,1,8,7,6,
5,4x,3,2,{8}1,,3<5[8:1],{4}5-8[8:1],7x,
8/1>3[8:1],7/1-4[8:1],1-5[8:1]/6-1[8:1],1/6,
{8},,,1/2>5[8:1],{4}2,8-6[8:1]*-4[8:1],
8b-5[8:1]*-3[8:1],8b-4[8:1]*-2[8:1],8b-3[8:1]*-5[8:1],8bw4b[8:1],
{2}8bx,{4}4-1[8:1]/5p1[8:1],{32}5b`4b-1b[0##0.1676],E4,B3,B2,{8}E2,
7,7,7,7,7-5[8:1],7,7,7,
7-1[8:1],7,7,7,{4}1x-4b[8:1]*s5b[8:1],1,
{8}2,2,2,2,2/4-6b[16:1],2,2,2,
3/6-8b[16:1],3,3,3,{4}3x/7x,5/2-6[8:1],
2/1-5[8:1],1/8-4[8:1],8/7-3[8:1],7/6v4[8:1],
{8},,,5,5h[4:1]/3h[4:1],,,,
{4}8-5[8:1]/7-4[8:1],7-2[8:1]/8-3[8:1],7-5[8:1]/8-5[8:1],8/7,
{8}4x/2x,{16}2,5,3,6,4,7,{4}8<5[8:1]/5>2[8:1],8x/5qq5[1:1]*pp5[1:1],
{8},,,,,,,,,,,,,5pp1[8:11],
5,5h[8:11],
,,,,,,,,,,,,,,8pp4[1:1],
8h[8:9],
,,,,,,,,,,{4}7<4[4:1],
4p7[4:1],1,
{8}1>3[4:1],,,1x>4[4:1],,,{4}1x>1[8:5],
{8},,,,,,,,8/2,
3/7,,7/8,{4}2/6,{8}8b/4b,8b/4bw8[8:1],
{16},,,Cf,,,,,,,,,,,,,{8}1/7p5[2:1],
1,,4,3,2,1,1h[8:7],
{2}4-8[8:1],7-3[8:1],
{8}1/4pp8[8:5],4,,8,1,2,3,4,
{4}4-2[8:1],4-1[8:1],4-8[8:1]*-8[8:1],4,
{8}1/7,5/3,,8/2,4-8-4[4:1]/6-2-6b[4:1],,,A8f/A2f,
E
