&title=Back 2 Back
&artist=長沼英樹「ソニック ラッシュ」
&first=0
&des=B(@A@)D
&clock_count=4
&lv_7=逆
&inote_6=
&inote_7=(150.0){1},
{4}1$`4?>1[4:1],4$`5?p4[8:3],,,
{4}8$`5?<8[4:1],5$`4?q5[8:3],,,
{4}1$`4?>1[4:1],4$`5?p4[8:3],,,
{2}7$`6?q7[4:1],2$`3?p2[4:1],
{4}7$`4?-7[4:1],4$`6?p4[8:3],,,
{4}2$`5?-2[4:1],5$`3?q5[8:3],,,
{4}7$`4?-7[4:1],4$`6?p4[8:3],,,
{2}2$`3?p2[4:1],7$`6?q7[4:1],
{4}1$`4?-1[4:1],4$`2?q4[8:3],,,
{4}8$`5?-8[4:1],5$`7?p5[8:3],,,
{4}1$`4?-1[4:1],4$`2?q4[8:3],,,
{2}4$/5$/2?-4[8:1]/7?-5[8:1],4$/5$/8?-4[8:1]/1?-5[8:1],
{4}2$`5?q2[4:1],5$`8?q5[4:1],,,
{4}7$`4?p7[4:1],4$`1?p4[4:1],,,
{4}3$`8?p3[4:1],8$`5?p8[4:1],,,
{4}6$`1?q6[4:1],1$`4?q1[4:1],,,
{4}2$`5?q2[4:1],5$`8?q5[4:1],8$`2?<8[8:1],,
{4}7$`4?p7[4:1],4$`1?p4[4:1],1$`7?>1[8:1],,
{4}3$`8?p3[4:1],8$`5?p8[4:1],5$`3?<5[8:1],,
{4}6$`1?q6[4:1],1$`4?q1[4:1],,2b,
{8}8$`2?v8[8:1],2$`6?<2[8:1],,,5$`1?>5[8:1],,,,
{8}1$`7?v1[8:1],7$`3?>7[8:1],,,4$`8?<4[8:1],,,,
{8}8$`2?v8[8:1],2$`6?<2[8:1],,,5$`1?>5[8:1],,,,
{8}1$`7?v1[8:1],7$`3?>7[8:1],,,4$`8?<4[8:1],,,,
{8}3$`5?v3[8:1],5$`1?>5[8:1],,,8$`4?<8[8:1],,,,
{8}6$`4?v6[8:1],4$`8?<4[8:1],,,1$`5?>1[8:1],,,,
{8}3$`5?v3[8:1],5$`1?>5[8:1],,,8$`4?<8[8:1],,,,
{8}6$`4?v6[8:1],4$`8?<4[8:1],,,1,,,,
{8}8$`4?-8[8:1],4$`7?-4[4:1],4$`1?-4[8:1],,,,,,
{8}1$`5?-1[8:1],5$`2?-5[4:1],5$`8?-5[8:1],,,,,,
{8}8$`4?-8[8:1],4$`7?<4[4:1],4$`1?>4[8:1],,,,,,
{8}1$`5?-1[8:1],5$`2?>5[4:1],5$`8?<5[8:1],,,,,,
{8}8$`4?-8[8:1],4$`7?v4[4:1],4$`1?v4[8:1],,,,,,
{8}1$`5?-1[8:1],5$`2?v5[4:1],5$`8?v5[8:1],,,,,,
{8}8$`6?-8[8:1],8$`4?-8[8:1],8$`5?-8[8:1],8$`3?-8[8:1],8$`5?q8[8:3],,,,
{4},,,1b,
{4}6$`3?p6[8:1],3$`6?q3[8:1],6$`3?p6[8:1],3$`8?p3[8:1],
{4}8$`3?q8[8:1],3$`8?p3[8:1],8$`3?q8[8:1],,
{4}2$`7?p2[8:1],7$`2?q7[8:1],2$`7?p2[8:1],7$`4?p7[8:1],
{4}4$`7?q4[8:1],7$`4?p7[8:1],4$`7?q4[8:1],,
{4}8$`5?p8[8:1],5$`8?q5[8:1],8$`5?p8[8:1],5$`2?p5[8:1],
{4}2$`5?q2[8:1],5$`2?p5[8:1],2$`5?q2[8:1],,
{4}4$`1?p4[8:1],1$`4?q1[8:1],4$`1?p4[8:1],1$`6?p1[8:1],
{8}6$`1?q6[8:1],,1$`6?p1[8:1],,,,,3$`6?-3[8:1],
{8}6$`3?q6[4:1],,,,,,,6$`3?-6[8:1],
{8}3$`6?p3[4:1],,,,,,,3$`6?-3[8:1],
{8}6$`4?q6[4:1],,4$`7?>4[4:1],,,,,6$`3?-6[8:1],
{8}3$`5?p3[4:1],,5$`2?<5[4:1],,,,,2$`6?p2[8:1],
{8}6$`8?p6[4:1],,8$`5?>8[4:1],,,,,7$`3?q7[8:1],
{4}3$`1?q3[4:1],1$`4?<1[4:1],,,
{8}1$`3?-1[8:1],1$`5?-1[8:1],1$`4?-1[8:1],1$`6?-1[8:1],1$`4?p1[8:3],,,,
{1},
{4}8$`5?<8[4:1],5$`3?q5[4:1],3$`8?>3[4:1],8$`5?<8[4:1],
{4}5$`3?q5[4:1],3$`8?>3[4:1],8$`5?<8[4:1],,
{4}1$`4?>1[4:1],4$`6?p4[4:1],6$`1?<6[4:1],1$`4?>1[4:1],
{4}4$`6?p4[4:1],6$`1?<6[4:1],1$`4?>1[4:1],,
{4}6$`1?<6[4:1],1$`3?p1[4:1],3$`6?>3[4:1],6$`1?<6[4:1],
{4}1$`3?p1[4:1],3$`6?>3[4:1],6$`1?<6[4:1],,
{4}3$`8?>3[4:1],8$`6?q8[4:1],6$`3?<6[4:1],3$`8?>3[4:1],
{4}8$`6?q8[4:1],6$`3?<6[4:1],,,
{8}2$`7?>2[8:1],7$`5?p7[8:1],5$`3?q5[4:1],,,,,,
{8}7$`2?<7[8:1],2$`4?q2[8:1],4$`6?p4[4:1],,,,,,
{8}2$`7?>2[8:1],7$`5?p7[8:1],5$`3?q5[4:1],,,,,,
{8}7$`2?<7[8:1],2$`4?q2[8:1],4$`6?p4[4:1],,,,,,
{8}2$`5?>2[8:1],5$`7?q5[8:1],7$`1?p7[4:1],,,,,,
{8}7$`4?<7[8:1],4$`2?p4[8:1],2$`8?q2[4:1],,,,,,
{8}5$`7?-5[8:1],5$`1?-5[8:1],5$`8?-5[8:1],5$`2?-5[8:1],5$`8?p5[8:3],,,,
E
