&title=Strongholds
&artist=Yooh
&first=0.38
&des=Holdbreaker
&lv_5=13+
&inote_5=(105){1},
{8}1bh[4:3],B4,B6,B4,
B6,B4,7h[1:1],,
{8}E5,B3,E5,B3,
E5,B3,Ch[8:1],1b,
{8}8h[4:3],B5,B3,B5,
B3,B5,2h[1:1],,
{8}E5,B6,E5,B6,
E5,B6,Ch[8:1],8b,
{8}2,5/3,7,{16}6/4,6,
{8}2,5/3,{16}7,4,6/4,6,
{8}1,4/3,8,{16}6/5,6,
{8}1,4/3,{16}8,5,6/5,6,
{16}1,4,2/4,2,
8,5,7/5,7,
{32}1,2,3,4,
8,7,6,5,
{32}1s5-1[8:5],2,3,4,
5,6,7,8,
{8},,,,
,,8,8,
{16}4-8-2[4:1]/7,,,6,
4,,5,,
4-8-2[4:1],,,2,
4,,3,,
{8}4>7[4:1],,7>4[4:1],,
4>7[4:1],,7,,
{16}5-1-7[4:1],,,3,
5,,4,,
5-1-7[4:1],,,7,
5,,6,,
{8}5<2[4:1],,2<5[4:1],,
5,,1b,1b,
{16}7/5-1-3[4:1],,,8,
5,,7,,
6V84[4:1],,,1,
6,,2,,
{8}3>6[4:1],,6<3[4:1],,
3>6[4:1],,6,,
{16}4-8-6[4:1],,,1,
4,,2,,
3V15[4:1],,,8,
3,,7,,
{24}6,7,8,2,3,4,
6,7,8,2,3,4,
6-3[12:1],7,8,2,3,4,
{8}
,,
{16}1-5[9:1],,6,6,
1^4[9:1],,4h[8:1],,
1-6[9:1],,6,6,
1-4[9:1],,4h[8:1],,
{16}1^6[9:1],,7,7,
1^4[9:1],,3,3,
1^6[9:1]*-5[9:1],8,,8,
1,,,,
{16}8-4[9:1],,3,3,
8^5[9:1],,5h[8:1],,
8-3[9:1],,3,3,
8-5[9:1],,5h[8:1],,
{16}8^3[9:1],,2,2,
8^5[9:1],,6,6,
8q4[8:1]*^3[8:1],1,,1,
,,,,
{16}1^4[9:1],,5,5,
1-6[9:1],,6h[8:1],,
1-4[9:1],,4,4,
1^6[9:1],,6h[8:1],,
{16}1-5[9:1],,3,3,
1^4[9:1],,7,7,
1q5[9:1]*qq7[9:1],8,,8,
1,,,,
{16}8^5[9:1],,4,4,
8-3[9:1],,3h[8:1],,
8-5[9:1],,5,5,
8,,3h[8:7],,
{8}4,2,4,2,
4,2,4w8b[9:1],,
{8}B4f/A4/A3/A5/E4/E5/D4/D5,,
2h[16:1]/6h[16:1],2h[16:1]/6h[16:1],
{16}3h,1,7,5,
2bxh[384:1],6,4,8,
{16}2h[384:1],4,6,8,
2bxh[384:1],7,5-8b[9:1],3,
1v4[9:1],6,,,
,,8b,,
{8}3h[8:1]/7h[4:1],,3h[16:3],{16}7,7,
{24}3,4,2,7,8,6,
2bx,1,3,6,5,7,
{24}2,1,3,6,5,7,
3bx,4,2,7v4[9:1],8,6,
3-8b[9:1],4,2,{8},,5bh[4:1],
{48}1h[384:1],B1,,
{16},,,
2h[16:1]/6h[16:1],,2h[16:1]/6h[16:1],,
{32}1x,2x,3x,4x,
1x,2x,3x,4x,
1bx,2x,3x,4x,
5x,6x,7x,8x,
{32}1x,2x,3x,4x,
1x,2x,3x,4x,
1bx,2x,3x,4x,
5xv8b[9:1],6x,7x,8x,
1x-4[9:1],2x,3x,,
,,,,
{8},8b,
{8}3h[8:1]/7h[4:1],,3h[16:3],{16}7,7,
{32}3x,4x,5x,6x,
3x,4x,5x,6x,
3bx,4x,5x,6x,
7x,8x,1x,2x,
{8}3x-7[12:1],,2-6[12:1],,
1-5-1[4:1],,1,8b,
{8}8q5[6:1],7,6p2[8:1],7,
8q5[6:1],7,6>8[4:1],7,
{8}8>6[4:1],7,6>8[4:1],7,
8>4[6:1],7,6,8bx,
{8}1p4[6:1],2,3q7[8:1],2,
1p4[6:1],2,3<1[4:1],2,
{8}1<3[4:1],2,3<1[4:1],2,
1,2,3bx,4bx/5bx,
{8}6,6/5,
{16}6/4,,6/3,6,
{8}6/2,7/2,
{16}2/8,2,2/1,2,
{8}6b,6/5,
{16}6/4,,6/3,6,
{8}6/2,7/2,
{16}2/8,2,2/1bx,2,
{16}6,6,6/4,6,
2,2,2/8,2,
{32}8,7,6,5,
1,2,3,4,
{32}8z4-8[8:5],7,6,5,
4,3,2,1,
{8},,,,
,,1b,1b,
{8}5h[8:1]/2q6[8:1],8^5[8:1],1/2,8^3[8:1],
4-8[8:1],7/8^5[8:1],4,,
{8}2q6[8:1],8^5[8:1],1/2,8p4[8:1],
4p8[8:1],8/1^4[8:1],,,
{8}7p3[8:1],1^4[8:1],8/7,1^6[8:1],
5-1[8:1],2/1^4[8:1],5,,
{8}7p3[8:1],1^4[8:1],8/7,1p5[8:1]*^6[8:1],
5p1[8:1],1^4[8:1],,,
{8}7-3[8:1],6/5^2[8:1],4/7,5^8[8:1],
8q4[8:1]*p4[8:1],4^1[8:1]/5,,,
{8}7-3[8:1],6/5^2[8:1],4/7,5^8[8:1],
8q4[8:1]*^3[8:1],4q8[8:1]/5,,,
{8}2-6[8:1],3/4^7[8:1],5/2,4^1[8:1],
1p5[8:1]*q5[8:1],5^8[8:1]/4,,,
{24}3,2,1,7,6,5,
3,2,1,7v2b[9:1],6,5,
3-6[12:1],2,1,7,,,
{8}3q5<3b[24:11],,
{48}8bxh,B8,Cf,B4,,,{8},,,
{16}8x^3[9:1],,4-8[9:1]/5,6,
{8}7/8,4,
{16}1-6[12:1],7,7,3,
1-4[12:1],2,2,5,
1-5-7[6:1]*-5-3[6:1],8,8,3,
1,,,,
{16}8^3[9:1],,4-8[9:1]/5,6,
{8}7/8,4,
{16}1^6[9:1],,5-1[9:1]/4,3,
{8}2/1,5,
{16}8-3[12:1],2,2,6,
8-5[12:1],7,7,4,
8-4-2[6:1]*-4-6[6:1],1,1,6,
,,,,
{16}1^6[9:1],,5-1[9:1]/4,3,
{8}2/1,5,
{16}8^3[9:1],,4-8[9:1]/5,6,
{8}7/8,4,
{16}1^6[12:1],7,7,5,
1^4[12:1],3,3,5,
1-5^7[6:1]*-5^3[6:1],8,8,3,
1,,,,
{16}1x/8x,,3/5,2,
1/4,,8/5,7,
6/4,3,2/5,6,
7/3,2,1/7,8z4-8[8:5],
{8}3h[4:7],,,,
,,,,
{8}A4,A2,A4,A2,
A4,A2,A4,,
E
