&title=XODUS
&artist=DJ Myosuke & Gram
&first=0
&des=4LS
&lv_5=14
&inote_5=(202)
{1},Ch[1:1],
{8}8z4[4:1],,,1b,,,2/5,
{16}3,5,1,,6,4,8,,3,4,1,,6,5,8,,3,4,2x-4[16:1],,,1x-7[16:1],,,2x-5[16:1],,,1x-6[16:1],,,
{8}4,3,2x/6x,1,2/6,1,
{16}7,8,7,8,6bx,1bx,6bx,1bx,6x-4[16:1],,,1x-3[16:1],,,7x-4[16:1],,,8x-3[16:1],,,
{16}6,,6h,4,7,,6h,4,7,,6h,4,8,,6h,4,1,,3h,4,2,,1/6,,8,7,1,6,2,5,3,4,1,2,8,3,7/Cf,,,,,,,,,,,,
{16}1bx,8bx,1bx,8bx,
{8}2<8[8:1]/7<5[8:1],,2-4[8:1]/7-4[8:1],,2<8[8:1]/7<5[8:1],,2-4[8:1]/7-4[8:1],,2<8[8:1]/7<5[8:1],,2/7-4[8:1],,7/2-4[8:1],,2/1x-5[8:1],8x,
{8}7x/1-6[8:1],,1-4[8:1]/3,,1-6[8:1]/7,,1-4[8:1]/3,,1-6[8:1]/7,,1/3,,1w5[8:1],1,,,
{8}3x/5x,3x/5x,2/4,2/4,1/3,1/3,2/8,2/8,4/6,4/6,5/7,5/7,6/8,6/8,1/7,1/7,
{16}1,8,2,7,1,8,3,6,2,7,4,5,3,6,4,5,4b<2[8:3],,,,,,,,,,,,3b/6b,,,,
{16}4w8[8:1],,,,Cf,,,,,,,,,,,,1b,8,1b,8,1b,8,1b,8,2>4[8:1],,7,,,,,,
{8}5/6,7,5/6,7,5/6,4,5/6,4,5/6,7,5/6,8,
{16}5>3[8:1],6,5,6,5x-8[8:1],,,,,,,,
{8}1-5[8:1]*-6[8:1],1,
{32}1,Cf,,,
{8},,,3/4,2,3/4,2,3/4,5,
{16}3,4,3,4,
{8}2/5,6,3/7,2,1/6,7,
{16}1-5b[8:1],8,1,8,1bx-3[8:1]*<6[8:1],,,,1bx-5[8:1],,,,1bxw5b[8:1],,,,
{8}1bx,,,,3<8[8:3]/7<2[8:3],3/7,,,,,
{16}1,1,1,1,1,1,1,1,1,,2/8,,1w5[8:1],,,,
{32}1x,Cf,,,
{1},
{8},,,B6/E6/E7/B3/E4/E3,,2h[8:3],,7h[8:1],,
{16}1/8,,1/8,,2/7,,2/7,,1,8,1,8,2/7,,2/7,,1/8,,1x/8x,2x/7x,3x/6x,,3x/6x,,
{16}2bx,7,1bx,8,2bx,7,1bx,8,1bx,8,1bx,8,1bx,8,1bx,8,1b-5b[8:1],8,1b,8,1b,,,,,,,,
{16}4,3,2,1,5,6,7,8,1/2-5[8:1],,,,2,,8,,8,7,6,5,1,2,3,4,5/7v4[8:1],,,,7,,3,,3,2,1,8,5,6,7,8,
{16}2,3,4,5,8,7,6,5,1,2,3,4,8,1,2,3,4x/8h,1h/5x,2h/6x,3h/7x,8,1,2,3,4x/8h,1h/5x,2h/6x,3h/7x,8,1,2,3,
{16}4-8[8:1]/1,,,,4,,3,,2,8,2,8,1,7,1,7,1,2,3,4,8,7,6,5,3,2,1,8,5,6,7,8,
{32}1bx,2,3,4,5,6,7,8,1,2,3,4,5,6,7,8,E1,E2,E3,E4,E5,E6,E7,E8,B1,B2,B3,B4,B5,B6,B7,B8,
{8}Cf,,,,3/6,,4z8[8:1]/5s1[8:1],,
{16},,,,3x/6x,,2,,8,7,6,5,1,2,3,4,5/7-4[8:1],,,8,7,,2,,1,2,3,4,8,7,6,5,
{16}2,3,4,5,6,7,8,1,2/6,5,4,3,2,1,8,7,6/1,2,3,4,2,3,4,5,8,7,6,5,7,6,5,4,
{8}1b,8,3/7,6,2/5,1,3/5,4/6,7b,2,6/4,5,5/3,4,3/6,7,
{16}1b,8,1,8,2,7,2,7,3,6,3,6,4,5,4,5,3,,1,,7,,5,,6h[8:1],,8h[8:1],,1h[8:1],,3h[8:1],,
{16}4,,5,,6,,7pp4[2:1],,,,2,,3,,4<8[2:1],,,,3,,2,,1h[4:1],,,,,,,,
{16}8,1,8,,1V38[4:1],,4-7[8:1],,4,,,,,,7x,8x,7x,8x,7x,,6x,6x,,5x,5x,,4x,4x,,3x,3x,,
{16}2,4,1pp8[8:3],,6,,7,,8>3[4:1],,,,7,,6,,5<8[4:1],,,,3,,2,,1<7[8:1],,,,
{16}2,3,4,,5,,6,,7,,8,,1h[2:1],,,,3,,4,,5<1[4:1],,,,1>5[4:1],,,,5<1[4:1],,,,1>5[4:1],,,,5,,
{4}C/B5/B4/B3/E4,,E8/E7,,E7/E6,,E6/E5,,E5/E4,,E4/E3,,E3/E2,,E2/E1,,
{4}1h,,2h,,3h,,4h,,5h/4,,6h/3,,7h/2,,8h/1,,
{8}7b-1[8:1]/2b>4[8:1],,7-5[8:1]/2v5[8:1],,7-1[8:1]/2>4[8:1],,7-5[8:1]/2v5[8:1],,7/2>6[4:1],,6x<2[4:1],,2>6[4:1],,6,,
{8}8,8,1/7,1/7,2/6,2/6,3/5,3/5,
{16}4,5,4,5,3,6,3,6,2,7,2,7,1b>4[8:1],,,,1-6[8:1]/8,,,,1/3,,,,2-5[8:1],,1,,6-1[8:1],,7,,6,,2v5[8:1],,2,,2/8,,,,
{16}8,7,6,5/4,3,2,1-4[8:1]*-6[8:1],,8,,1,,,,3/7-5[8:1],,2,,7-2[8:1],,3,,7,,4w8[8:1],,4,,4,,,,
{24}2/6,3,4,5,6,7,8,1,2,
{16}3b-8[8:1]/8b-5[8:1],,,,3/8,,,,1-5[8:1],,2,,1/7-4[8:1],,8,,
{16}7/4,,3b,,2b/6b,,1b/7b,,,,1x/8x,2x/7x,3x/6x,,4x/5x,,3>7[4:1],,3,,7q4[4:1],,7,,,,5w1[8:1],,5,,5b,,,,,,2x/8x,,,,3x/7x,,,,3x/6x,,,,
{8}4h[8:1]/5h[8:1],,4h[8:1]/5h[8:1],,3h[8:1]/6h[8:1],,3h[16:1]/6h[16:1],,2h[24:1]/7h[24:1],,2h/7h,,1-5[8:1]/8-4[8:1],,1/8,,
{16}3b/6b,,2b/7b,,1b/8b,,,,2-6[8:1]/7,,1,,2/8-5[8:1],,1,,8/4,,3,,2x/6x,,1x/7x,,,,1,2,3,4/5,6,7,8-4[8:1],,,,
{16}8/1>4[8:1],,1,,1/6-1[8:1],,7,,6-3[8:1],,4,,6,,2,,7/1,,8<6[8:1],,,,1,2,3,,4,,7-5[8:1],,2-4[8:1],,7,,2,,,,4-8[8:1]/5-1[8:1],,3/6,,4b/5b,Cf,
{1},
{8}1,8,7,6h[8:13],,1,8,7,5x,5x,5x,5x,5x,5x,5x-1[8:1],5x,
{1}5b<5[2:3],
{4},,,8b,
{16}1-6[8:1]/8-3[8:1],,2/7,,1b/8b,,,,,,4-8[16:1],,,5-2[16:1],,,1b,,,,,,3/1,,,,7/8,,8x,1x,2x,3x,4-7[8:1]/5-2[8:1],,3/6,,4b/5b,,,,,,1-5[16:1],,,6-1[16:1],,,2b,,,,,,2/7,,,,1b/8b,1h[8:1]/8h[8:1],,,,,
{16}4-7[8:1]/5-2[8:1],,3/6,,4b/5b,,,,,,3-8[16:1],,,6-2[16:1],,,1b,,,,,,2/7,,,,1/8,,
{12}1x/8x,2x/7x,3x/6x,
{16}4xv7[8:1]/5xv2[8:1],,4/5,,4b/5b,,,,,,8-4[16:1],,,3-8[16:1],,,7b,,,,Ch[4:3],,,,,,,,,,,,
{24}1b,2,3,4,5,6,7,8,1,
{16}5x,,,,3/4,,5/2,,1/6,,8<4[16:3]/7,,,,,,1,,,,
{32}1b,2,3,4,,,,,8,,,,
{24}8b,7,6,5,4,3,2,1,8,
{16}4x,,,,3/5,,26,,1/7,,8p4[8:1],,,,,,1,,,,3b/6b,3/6,,,,,
{24}1b,2b,3b,4,5,6,7,8,1,2,,,7x,,,8b,7b,6b,5,4,3,2,1,8,7>2[16:3],,,,,,
{32},,,,3b,4,5,6,,,7x,,,8x,,,1x,,,2x,,,,,
{24}1b,2b,3b,4,5,6,7,8,1,2,3,4h[24:4],
{32},,,,8b,7b,6b,5b,4,3,2,1,8,7,6,5,
{1}4>6[2:1],
{1}4/5,
