&title=summertime
&artist=cinnamons×evening cinema
&first=0
&des=噂のDreamin' Girl
&lv_5=12+
&inote_5=(132){8},,,,,,,,
5h[1:1]/3,,4,,,,3,,2h[1:1],,4,,,,5,,
6h[1:1],,3,,,,4,,3h[1:1],,5,,,,6,,
7h[8:7],,5,,5,,4,4^7[4:1],,7^2[4:1],,2>6[4:1],,6<5[16:7],,7h[1:1],
,,,,5,,4,,3h[8:3]/4,,,{32}5xp1[16:3],6xpp5[8:3],7x,,{8},,,,
||
intro
2-4[8:1]*-6[8:1],,2,,7qq5[8:2]/5,7/5,,3^1[8:1],,6h[4:1],,{32}2xqq3[8:3],3x,4xq8[8:1],,{8},,,,
7v4[8:1]*p3[8:1],,7,,25,2^5[4:1]/5,,5^8[4:1],,8^3[6:1],,{32}6x,5xv8[64:13],4xq8[64:11],,{8},,,,
2-5[8:1]/6-2[8:1],,26,,48,4/8-4[8:1],,3-8[8:1],,6-2[8:1],,1-5[8:1],,8p6[16:5],,4>8[8:2],
4<8[8:1],,,,17,26,3/5-1[8:1],4h[4:1],,,8bxw4[16:5],,,,,,
||
A
1^3[8:1]/5^7[8:1],,,,8p4[8:1]/4,,3,2,1^3[8:1]/5^7[8:1],,,,8p4[8:1]/4,,3,2,
5^7[8:1]/1^3[8:1],,,,4p8[8:1]/8,,7,6,5^7[8:1]/1^3[8:1],,,,4p8[8:1]/8,,7,6,
1^3[8:1]/5,,4p8[8:1],,7^5[8:1],,1,2,3pp5[4:1],,5>2[6:1],,8^6[8:1],,1h[4:1],,
3<1[8:3],4,5h[4:2],,,,3x<5[8:1],,6h[4:2],,7,8,1v6[8:1]*p5[8:1],,,,
7^5[8:1]/4q8[8:1],,,,4q8[8:1]/1,,2,3,7^5[8:1]/4q8[8:1],,,,4q8[8:1]/1,,2,3q8[16:3],
7^5[8:1],,,,4q8[8:1]/1,,2,3q8[16:3],7^5[8:1],,,,4q8[8:1]/1,,2,3,
7^5[8:1]/4,,4q8[8:1],,1^3[8:1],1,7,7,6qq5[4:1],,5<7[8:1],3x,1x^3[8:1],,8h[4:1],,
6>8[8:3],5,4h[4:2],,,,6>4[8:1],,3h[4:2],,2,1,8v5[8:1]*q4[8:1],,,,
||
B
7q4[6:1],7,3^8[6:1],3,5pp7[6:1],5,1<5p4[8:4],1h[8:3],,,,,2,3,46,7,
8/3q8[6:1],3,7^4[6:1],7,1pp3[6:1],1,5>6[8:3],5h[8:3],,,,,46,37,26,1h[4:1]/5h[4:1],
,,26,37,{16}4hx[8:1]/8hx[8:1],,,2hx[8:1]/6hx[8:1],,,3xv1[4:1]/7xv5[4:1],,{8},,,,
{16}26,,,37,,,48,,{8}
1qq1[16:7]/5qq5[16:7],,,,,,,3/7,,,,,,,C,,
||
C
2/4-2[8:1],,4/5-1[8:1],,5/6-3[8:1],,6/2>8[8:2],1h[4:1],,,2,3,47,6,52,1,
6/8-6[8:1],,8/1-5[8:1],,1/2-7[8:1],,2/6<4[8:2],5h[4:1],,,6,7h[4:1]/5x>2[8:1],,,6,5,
1^4[8:1]/4^7[8:1],,1/4s8[8:2],,6,,5,4-7[8:1]/1-4[8:1],,4/1-5[8:1],,1-7[8:1]/2-6[8:1],,1>8q1[8:5]/2,,1/5h[8:3],
,,,,6,5,42,3,45,38,47,35,{16}2,2,{8}4,{16}6,6,{8}4,
7/5V74[8:2],,5/4-8[8:1],,2^5[8:1],,2/7>4[8:2],6h[4:1],,,7,6,52,3,47,8,
3/1V38[8:2],,1/8-4[8:1],,6^1[8:1],,6/3<8[8:2],2h[4:1],,,2,3,4h[4:1]/1,3-8[8:1],,7h[8:3],
,6^1[8:1],,2h[8:3],,3q7<2qq8[8:6],,6h[8:5],,,,,,,C,,
||
inst
{16}46,,3,4,2,,2,4,3,,6,5,7,,7,5,{8}6pp8[16:3],6,4qq2[16:3],4,7qq5[16:3],7,3qq1[16:3],3,
{16}7,,6,,52,,3,4,3,,6,5,6,,37,,{8}2,2h[4:1],1,1h[4:1],8,8,7b/1b-5[8:1],,
6-2[8:1],7,4-1[8:1],3,8-4[8:1],7,3<1[16:5],2h[4:1],,,3,4,58,7,64,3,
27,{24}4,5,4,{8}5,,37,26,15,8h[4:1]/4h[4:1],,,Cf/B1/B2/B5/B6,,,,,,
||
C
{8}
5<4[8:20],,,,,,,,,,,,,,,,
5<4b[8:20],,,,,,,,,,,,,,,,
5<4[8:20],,,,,,,,,,,,,,,,
5<7b[8:4],,,,,,,,,2x/6x,2x/6x,45,83,7,6/4-7[8:1],3,
2b/4bV25[4:1],,4/5-1[8:1],6,7^4[8:1],8,7/2<5[8:2],3h[4:1],,,2,3,46,7,8-3[8:1]/2,1,
6/8V61[4:1],,8/1-5[8:1],2,3^8[8:1],4,3/6p4^2[8:3],7h[4:1],,,6,5,4/1h[4:1],2^5[8:1],8,6h[4:1],
,7-2[8:1],1,3h[4:1],,4^1[8:1],6,8h[4:1],,7p2[4:1],,2p5[4:1],,5>8[32:9],,3h[8:3],
,{32},,7x,6x,{8}5x,,46,37,2/8-4[8:1],1h[4:1],,,{32}2xqq2b[8:3]/6x`6!qq6[8:3],3x/7x,4x/8x,,{8},,,,,
||
outro
1xw5[4:3],,,,,,,,,,
{16}7xh[16:5]/3x,,,,,5xh[16:6],,,,,,4xh[16:7],,,,,,,2xh[16:8],,,,,,,,{8}
8x<1[8:23],,,,,,,,,,,,,,,,,,,,,,,,{32},,B7,C,{8}
B3,,,,,,,,,,,,,,,,,
E
