&title=Rolling Star
&artist=YUI
&first=0
&des=MYOU
&wholebpm=161
&des_5=MYOU
&lv_5=12
&lv_6=13
&inote_5=(161)
{1},
{8}6h[2:1],,1,,4h[2:1],,8,,5h[2:1],,1,,3h[4:1],,8,,
{8}2h[8:1],1,38,,7h[8:1],8,16,,
3h[8:1],4,25,47,{16}1,8,2,7,1b,,,,
{8}1-5[8:1]/7,,12,3q6[4:1],,,1h,,
{8}2/8-4[8:1],,78,6p3[4:1],,,8h,,
{8}1/3p7[8:1],,35,6q7[4:1],,,8h,,
{8}6q2[8:1]/8,,46,3p2[4:1],,,1h,,
{16}27,,3,4,25,,6,5,47,,4,5,2b/7b,,,,
{8}18,2-5[8:1]/7,,12,,7-4[8:1],,78,1,2-6[8:1],,1-5[8:1]/2,,12,,3,
{8}5,4,6,4,5,3,5,4,6,6-2[8:1]*-1[8:1],,6b,,,,1,
{8}8,2,7,3-7[8:1]*-8[8:1],,3,,7,6,5-1[8:1],,5<8[8:1]*>2[8:1],,5,,57,
{8}7,5,6,5,4,3,4,2,
8bz4[4:1],,,,,3>8[8:1]/7<4[8:1],37,37,,,
{8}4h[4:1]/8h[4:1],,,1h[4:1]/5h[4:1],,,2b/6b,,
,,,,,,2h[4:1]/7h[4:1],,
{8},3h[4:1]/6h[4:1],,,4-2[8:1]/5-7[8:1],,4-8[8:1]/5-1[8:1],,4>1[8:1]/5<8[8:1],,4b/5b,,,2,
{8}24,3,45,6,57,8,18,2,4-7[8:1],3-8[8:1],4,3,,7,1-3[8:1],7,
{8}1-5[8:1],7,1-3[8:1],6,1-5[8:1],7,1,6,1>7[8:3],7,1,8b,,2b,,{16}2,2,
{8}7,57,6,45,3,24,2,2pp8[8:3]/7qq1[8:3],,,,,,2,8-6[8:1],2,
{8}8-4[8:1],2,8-6[8:1],3,8-4[8:1],2,8,3,8-5[8:1],,4,3-8[8:1],,7,6bs2[4:1],,
{8},,,,1,17,8,28,7,16,2,3h[2:1]/8h[2:1],,,,,
{8}8v5[8:1],3<6[8:1],8,3,,8,7,6,1v4[8:1],6>3[8:1],1,6,,1-5[8:1]/8-5[8:1],,1b/8b,
{8},,,2/1-5[8:1],,18,7w3[8:1],,7,,,3z7[8:1]/4s8[8:1],,,,,1-5[8:1]/7,,13,4<7[8:1]*>1[8:1],,4w8[4:1],,4,,,,,
{8}8-4[8:1],,8/4qq4[4:3]*pp4[4:3],,4,,,,
,,,,
{8},,6h[4:1],,3,24,,6,57,,45,36,,,4-1[4:3],,
{16}8b,,,5,4,,
8b,,,5,4,,
8h[8:5],,,,
5b,,,3b,
,,1b,,
,,,,
,,4,,
{8}47,5,25,3,38,6,16,2qq4[8:3]/5pp3[8:3],,,,,,3,2-5[8:1],1,
{8}7-4[8:1],8,2-5[8:1],1,7-4[8:1],8,2-5[8:1],1,7,7h[4:1],8,8-4[8:1],,18,,{16}7,7,
{8}8,1,12,3,34,5,56,7,78,1-5[8:1],,1<5[4:1],,3,4-8[8:1],3,
{8}5-1[8:1],6,4-8[8:1],3,5-1[8:1],6,4-8[8:1],3,6>3[8:1],,2,1>4[8:1],,7,8b-5[8:1]*z4[8:1],,
{8},,,18,
2h[8:13]/7h[8:5],,,,
,,1,7h[8:9],
,,,,
,,8,2h[8:5],,
{8}7,6,5,4,
4-2[8:1],,4/5-1[8:1],6,
5,,,7b<5[4:1],,5>3[4:1],,3>1[4:1],,
1<6[4:1],,6>3[4:1],,3>8[4:1],,8<5[4:1],,
5>1[4:1],,1<5[4:1],,5>1[4:1],,1<5[4:1],,
5b>5[2:1]*>6[16:7]*>7[8:3]*>8[16:5],,
{2},
{16},1-5[8:1],8,2,7,1b,,,
{8}47,6,5,24,3,2,1qq6[8:3]/2pp5[8:3],12,
{1},
&inote_6=(161)
{1},
{8}6h[4:3]/5,,4,4,,3,3,,
{8}3h[4:3]/4,,5,5,,6,6,,
{8}7h[4:3]/5,,4,4,,3,3,,
{8}2<7[8:1]/4<7[8:1],,,,{16}1-4[8:1],8,2,7,1,,,,
{8}2b/6h[4:1],,5,3h[4:1]/8,,4,2,8,
{8}1/7h[4:1],,3,4/2h[4:1],,1,3,7,
{8}6/5h[4:1],,8,6h[4:1]/2,,5,7,1,
{8}1b/2b,,45,4b/5b,,78,7b/8b,{16}1,8,
{8}1,2,3,27,6,5,3-6[8:1]/6,,
{4}7h[8:1],7h[8:1],7h[8:1],7h[8:1],
{4}5h[8:1],5h[8:1],5h[8:1],5h[8:1],
{4}4h[8:1],4h[8:1],4h[8:1],4h[8:1],
{8}2h[8:1],,2h[8:1],,2h[8:1],3,4>6[2:5],5,
{4}6h[8:1],6h[8:1],6h[8:1],6h[8:1],
{4}5h[8:1],5h[8:1],5h[8:1],5h[8:1],
{4}4h[8:1],4h[8:1],4h[8:1],4h[8:1],
{8}3b>8[8:1],,8b>3[8:1],,4b,5,6,7,
{8}1-4[8:1]/8,,6,6V47[16:3],,3,3v8[8:1],,
{8}4h[4:3],,1,1,,1,1,,
{8}3/7-3[8:1],,2,2V46[16:3],,8,8w4[8:1],,
{8}8bpp8[16:5],,,,,,,18,
{8}2-4[8:1],2,5-1[8:1],6,8-6[8:1],8,5-1[8:1],4,
{8}2-4[8:1],2-6[8:1],,,,8,1,2,
{8}3/5h[8:1],4,7/5h[8:1],6,3/5h[8:1],4,7/5h[8:1],6,
{8}35,3-6[8:1]/5,2,1b>4[8:1]*<6[8:1],,1b,,{16}5,4,
{8}6<8[8:1],7,1p5[8:1],2,4>2[8:1],3,1q5[8:1],8,
{8}6<8[8:1],7q3[8:1],,,,4,5,6,
{8}78,1,21,3,34,5,56,7,
{32}1b/6h[8:1],2,3,4,,,,,2,,,,8b/3h[8:1],7,6,5,{16},,6,,2,4,2,4,
{8}1-5[8:1],1,8,7,6-2[8:1],6,5,4,3-7[8:1],3,2>8[16:5],1h[8:3],,,,,
{8}6b/2h[8:1],4,3,4b/8h[8:1],5,6,7b/8b,16,4b/5b,{16}2,1,{8}2,3h[4:1]/8b-5[8:1]*-5[8:1],,8,{16}4,3,2,1,
{8}5,5h[4:1],,6,,37,3p6[8:1]/7,,
{8}5,5h[4:1],,6,,37,3>6[16:3]/7,,
{8}5,5h[4:1],,6,,37,3<6[8:1]/7,,
{8}8,1,2,7,8,1,7/2-6[8:1],,
{8}5pp4[8:3],,,1,,3,3qq4[8:3],,
{8}4,,6,6,,47,47,{24}6,5,6,
{8}5,4,3,2,1h[8:1],8h[8:1],7h[8:1],6,
{16}4/5,,2,1,2,,34,,7,8,7,,5>2[8:1]/6,,,,
{32}8b,7,6,,,,1b,2,3,,,,8b,7,6p2[8:1]*v1[8:1],,{8},,,,
{8}8-6[8:1],8,5-1[8:1],3,2-4[8:1],2,5-1[8:1],7,
{8}8-6[8:1],8V24[32:5],,,,5,6,7,
{8}2/8h[8:1],3,7/1h[8:1],6,2/8h[8:1],4,7/1h[8:1],5,
{8}82,8/2-6[8:1],6,8b>3[8:1]*<5[8:1],,8b,,{16}4,5,
{8}3>1[8:1],1,8q4[8:1],6,5<7[8:1],7,8p4[8:1],2,
{8}3>1[8:1],1<6[8:1]*p5[8:1],,,,4,3,2,
{8}17,8,57,6,35,4,13,2,
{32}8b/3h[8:1],7,6,5,,,,,7,,,,1b/6h[8:1],2,3,4,{16},,3,,7,5,8,4,
{8}1-5[8:1],4>6[4:1],,4b,,,4h[8:1],{16}8,4,
{8}8-4[8:1],5<3[4:1],,5b,,,5h[8:1],{16}1,5,
{8}1-5[8:1],4-8[8:1],,4b,,7,6,5,
{8}34,3,45,4,56,5,{16}7,8,6,1,
{8}5<8[8:1],5,1>4[8:1],1,5<8[8:1],5,1>4[8:1],1,
{8}6<1[8:1],6,2>5[8:1],2,6<1[8:1],6,2>5[8:1],2,
{8}7>2[8:1],7,3<6[8:1],3,7>2[8:1],7,3<6[8:1],3,
{8}6b,8,1,3b/6b,{16}2,4,3,5,4,6,5,7,
{8}1b/8b,2-7[8:1],3,2b/7b,6-3[8:1],5,3b/6b,1b<5[8:1]*>4[8:1],
