&title=桜華月 (SHIKI's Remix)
&artist=AKITO remixed by SHIKI
&first=0.07
&des=SuteraDiffusus
&lv_5=14
&inote_5=(180)
{1},
{128}
,,,,,,,,,,,,,,,,,,,,,,,,,,,,,,,,,,,,,,,,,,,,,,,,,,,,,,,,,,,,,,,,,,,,,,,,,,,
5/6xh[128:81],,,,,,,,,,,,,,,,,,,,,,,,,,,,,,,,,,,,,,,,
4,,,,,,,,,,,,,,,,,,,,3,,,,,,,,,,,,,,,,,,,,,
2,,,,,,,,,,,,,,,,,,,,,,,,,,,,,,,,,,,,,,,,,,,,,,,,,,,,,,,,,,,,,,,,,,,,,,,,,,,,,,,,,,,,,
3xh[128:78],,,,,,,,,,,,,,,,,,,,,,,,,,,,,,,,,,,,,,4,,,,,,,,,,,,,,,,,,,5,,,,,,,,,,,,,,,,,,,,,
6,,,,,,,,,,,,,,,,,,,,,,,,,,,,,,,,,,,,,,,,7,,,,,,,,,,,,,,,,,,,,,,,,,,,,,,,,,,,,,,,,,,
7xh[128:81],,,,,,,,,,,,,,,,,,,,,,,,,,,,,,,,,,,,,,,,
6,,,,,,,,,,,,,,,,,,,,,5,,,,,,,,,,,,,,,,,,,,4,,,,,,,,,,,,,,,,,,,3,,,,,,,,,,,,,,,,,,,
2,,,,,,,,,,,,,,,,,,,,,,,,,,,,,,,,,,,,,,,,,,
2xh[128:81]/3,,,,,,,,,,,,,,,,,,,,4,,,,,,,,,,,,,,,,,,,,5,,,,,,,,,,,,,,,,,,,,,,,,,,,,,,,,,,,,,,,,,6,,,,,,,,,,,,,,,,,,,,,,,,,,,,,,,,,,,,,,,,7,,,,,,,,,,,,,,,,,,,,,,,,,,,,,,,,,,,,,,,,
7xh[128:81]/8,,,,,,,,,,,,,,,,,,,,,,,,,,,,,,,,,,,,,,,1,,,,,,,,,,,,,,,,,,,,,2,,,,,,,,,,,,,,,,,,,,,3,,,,,,,,,,,,,,,,,,,,,,,,,,,,,,,,,,,,,,,,,,,,,,,,,,,,,,,,,,,,,,,,,,,,,,,,,,,,,,,,,,
2xh[128:81]/1,,,,,,,,,,,,,,,,,,,,8,,,,,,,,,,,,,,,,,,,,,7,,,,,,,,,,,,,,,,,,,,,,,,,,,,,,,,,,,,,,,,6,,,,,,,,,,,,,,,,,,,,,,,,,,,,,,,,,,,,,,,,,5,,,,,,,,,,,,,,,,,,,,,,,,,,,,,,,,,,,,,,,,,
6xh[128:81],,,,,,,,,,,,,,,,,,,,,,,,,,,,,,,,,,,,,,,,8,,,,,,,,,,,,,,,,,,,,1,,,,,,,,,,,,,,,,,,,,,2,,,,,,,,,,,,,,,,,,,,,,,,,,,,,,,,,,,,,,,,3,,,,,,,,,,,,,,,,,,,,,,,,,,,,,,,,,,,,,,,,,4w8[8:10],,,,,,,,,,,,,,,,,,,,,,,,,,,,,,,,,,,,,
{8},,
{1},,
{8}
6h[8:16],,5,,,,5,,,,5,,,,5,,3h[8:16],,4,,,,4,,,,4,,,{24}8xb,,,8xb,,,,,,
{8}
7h[8:14],,5,,5,,4,,4,,3,,3,,2,,2h[8:6]/5,5,6,6,7,7,8,8,7/1,{24}7/1,6,5,4,,,,,,{8}1-5[8:1]/2-6[8:1],,1/2,,
{8}
3,3,2-5[8:1]/4,,6,6,7,8,4/1,3,2,1-5[8:1]/5,,6,7,8,
3-5[8:1],3,6-3[8:1],6,2-6[8:1],2,7,7,8,1/7,2/6,3/5,4,{16}3x,4x,1x,,1x,,
{8}
6,6,7-4[8:1]/5,,3,3,2,1,5/8,6,7,8-4[8:1]/4,,3,2,1,
6bh[8:2],B6/B5/E6,3bxh[8:2],E3/B3,7h[8:2],B7,2xh[8:2],B1,8x,8x,3x/7x,3x/7x,
{16}6x,4x,6x,4x,5,3,5,3,
{24}4^7[8:1],,,,,,3,,,2,,,1>5v2[8:3],,,,,,
{8}
B6/E6/B5,E7/B7,E8,,
1-5[8:1],3,2,,1-5^3-8[8:3],,,,8,7,6-2[8:1],5,4h[8:2],,1,8/3,2,1/6,
{16}5,,6x,5x,8x,,8x,,
{24}5^2[8:1],,,,,,6,,,7,,,8<4v7[8:3],,,,,,
{8}
E1/B1/E2,E3/B2,B3,,
4-8[8:1],8,7,,6-1^7-4[8:3],,,,4,3,2-6[8:1],,8h[8:2],,5,4/7,6,5/2,
{16}3,,3x,4x,1x-5[8:1],,,,
{24}6^1[8:1]/1,,,,,,4,,,3,,,2-8-4^2[8:3],,,,,,
{8}
B6/E6/B5,E7/B7,E8,,
1-5-7[8:2],3,2,,1-5-3^8[8:3],,,,8,7,6-2[8:1],5,4h[8:2],,1,8/3,2,1/6,
{16}5,,6x,5x,8x,,8x,,
{24}5^2[8:1],,,,,,8,,,7,,,6v1^6[8:3],,,,,,
{8}
E1/B1/E2,E3/B2,B3,,
4-8[8:1],8-2[8:1],7,,6-1^6^4[8:3],,,,4,3,2-6[8:1],,8h[8:2],,5xh[8:1],,6xh[8:1]/4xh[8:1],,{16}3x/5x,,B4,C,B8,,,,
{8}
1x>6[4:7],,E6,,E5,,E4,,E3,,E2,,E1,,E8,,7x>4b[4:7],,E4,,E3,,E2,,E1,,E8,,E7,,E6,,
5xp4[8:6],,4x,,3x,,2x,,1xp8b[8:6],,8xh[8:1],,7xh[8:1],,6xh[8:1],,5x^8[8:2],,1,2,4x^1b[8:2],,
8,7,5,5,4/6,4/6,{16}7,3,7,3,8,2,8,2,
{8}1q5^7[8:2],,2,,1p5^3[8:2],1,,7,8,1q5^7[8:2],,2,1xp5^3[8:2],,,,
8q4^2[8:2],,7,,8p4^6[8:2],8,,2,1,8q4^2[8:2],,7,8xp4^6[8:2],,,,
2p6^4[8:2],,8,,1q5^8[8:2],1,S,4,3,2q6^4[8:2],,8,1qx5^8[8:2],,,,
4x,,3,2,1x-5-3[8:2],,6,7,8x-4-6b[8:2],,8x/7x-3[8:1],,7xb,{16},1x,1x,,2/8,,
3/7^4[8:1],,,,7/8,,,,3h[16:3],,,4,3,,2,,
1/2^5[8:1],,,,2/5,,,,6h[16:3],,,5,6,,7,,
7-5^3[8:2]/8,,,,3,,1,,8^2-4[8:2],,,,6,,7,,8h[8:1],,
{24}
6x,7x,8x,1x,,,2/6,,,
{16}
4/8,,3,7,2,6,1,,
1-5[8:1]/5,,,,7/1,,,,8h[16:2],,{24}6,7,8,1,,,{16}3,,
8-4[8:1]/4,,,,2/8,,,,1h[16:2],,{24}3,2,1,8,,,{16}6,,
1/5,,1/5,,2/6,,2/6,,3/7,,3/7,,4/8,,4/8,,5,1,5,1,5,1,5,1,
{24}
5,6,7,8,1,2,
{32}
3/4,5,6,7,8,1,2,3,
{8}
4b-8[8:1],,5/4,,5,6,7-3[8:1]/4,3,2-5[8:1],1,2,6>1[8:2],,8,7x,6,
5-3[8:1],5,2-5[8:1],2,6-2[8:1],6,1v6[8:1],1,7,8,1/5,4/8,{16}3/7,,2x,4x,1x,,1x,,
{8}
5/1b-5[8:1],,2/1,,4,3,2-6[8:1]/5,6,7-4[8:1],8,7,3-5-7^8[8:2],,1,2,3,
4-2[8:1],4,8-4[8:1],8,1-5[8:1],1,7,7h[8:1],
{16}
6,7,8,5,1,4,2,3,
{24}
4,5,6,7,8,1,
{32}
2,3,4,5,6,7,8,1,
{8}2b-6[8:1],,2/1,,8-4[8:1],4-6[8:1],3,2,2-8[8:1],8-4[8:1],7,6h[8:2],,5,4/7,8/3,1-4[8:1]/2,
{16}2,8,1,,8,,7-4[8:1],,7,,3-7[8:1],,3,,8v3[8:1],,8,,2-5[8:1],,1,,2,,6,7,8,,8,,
{8}7b-3[8:1],6,7/8,,1-5[8:1],5-3[8:1],6,7,7-1[8:1],1-5[8:1],2,3h[8:2],,4,5/2,1/6,8-5[8:1]/7,
{16}7,1,8,,1,,2-5[8:1],,1,,6,,7h[8:1],,6,7,6,7,6,7,6,7,8,7,1,7,2,7,3,7,
{8}
4-7[8:1],7,4-1[8:1],8,8-4b[8:1],,8,,2h[8:2],,8,7,6^1[8:1]/2^5[8:1],,2/6q4[8:2],,,,5,6,7/8,1,
2/4,,6/5,7,1/2,3,8/7,{16}7x,5x,6x,,6x,,
{8}
5-2[8:1],2,5-8[8:1],1,1-5b[8:1],,1,,7h[8:2],,1,2,3^8[8:1]/7^4[8:1],,7/3p5[8:2],,,,4,3,2/1,8,
7/5,,4/3,2,8/7,6,1/2,{16}2x,4x,3x,,3x,,
{8}
4-7[8:1],7^4[8:1],4^1[8:1],8,8-4b[8:1],,8b,,3,2,8/1,7,6^1[8:1]/2^5[8:1],,2/6q4[8:2],,6/7,,5,6,7/8,1,
2/4,3,7/5,6,1/3,2,8/4,{24}8x/4x,3x/7x,6x/2x,1x/5x,,,1x/5x,,,
{8}
5-2[8:1],2^5[8:1],5^8[8:1],1,1-5b[8:1],,1b,,6,7,1/8,2,3^8[8:1]/7^4[8:1],,7/3p5[8:2],,3/2,,4,3,2/1,8,
7/5,,2x/4h[128:1],3x,8x/6h[128:1],7x,
{16}
1xh[128:1],5x,3xh[128:1],7x,B2,B6,B4,B8,{128}
Ch[128:1],,,,,,,,,,,,,,,,,,,,,,,,,,,,,,,,,,,,,,,,
,,,,,,,,,,,,,,,,,,,,,,,,,,,,,,,,,,,,,,,,,
,,,,,,,,,,,,,,,,,,,,,,,,,,,,,,,,,,,,,,,,,,,,,,,,,,,,,,,,,,,,,,,,,,,,,,,,,,,,,,,,,,,,
1xh[128:78],,,,,,,,,,,,,,,,,,,,,,,,,,,,,,,,,,,,,,,,,,,,,,,,,,,,,,,,,,,,,,,,,,,,,,,,,,,,
,,,,,,,,,,,,,,,,,,,,,,,,,,,,,,,,,,,,,,,,,,,,,,,,,,,,,,,,,,,,,,,,,,,,,,,,,,,,,,,,,,
8xh[128:81],,,,,,,,,,,,,,,,,,,,,,,,,,,,,,,,,,,,,,,,
,,,,,,,,,,,,,,,,,,,,,,,,,,,,,,,,,,,,,,,,,,,,,,,,,,,,,,,,,,,,,,,,,,,,,,,,,,,,,,,
,,,,,,,,,,,,,,,,,,,,,,,,,,,,,,,,,,,,,,,,,,,,,
2xh[128:81],,,,,,,,,,,,,,,,,,,,,,,,,,,,,,,,,,,,,,,,,,,,,,,,,,,,,,,,,,,,,,,,,,,,,,,,,,,,,,,,,,,,,,,,,,,,,,,,,,,,,,,,,,,,,,,,,,,,,,,,,,,,,,,,,,,,,,,,,,,,,,,,,,,,,,,,,,,,,,,,,,,,,,,
7xh[128:81],,,,,,,,,,,,,,,,,,,,,,,,,,,,,,,,,,,,,,,,,,,,,,,,,,,,,,,,,,,,,,,,,,,,,,,,,,,,,,,,,,,,,,,,,,,,,,,,,,,,,,,,,,,,,,,,,,,,,,,,,,,,,,,,,,,,,,,,,,,,,,,,,,,,,,,,,,,,,,,,,,,,
3xh[128:81],,,,,,,,,,,,,,,,,,,,,,,,,,,,,,,,,,,,,,,,,,,,,,,,,,,,,,,,,,,,,,,,,,,,,,,,,,,,,,,,,,,,,,,,,,,,,,,,,,,,,,,,,,,,,,,,,,,,,,,,,,,,,,,,,,,,,,,,,,,,,,,,,,,,,,,,,,,,,,,,,,,
6xh[128:85],,,,,,,,,,,,,,,,,,,,,,,,,,,,,,,,,,,,,,,,,,,,,,,,,,,,,,,,,,,,,,,,,,,,,,,,,,,,,,,,,,,,,,,,,,,,,,,,,,,,,,,,,,,,,,,,,,,,,,,,,,,,,,,,,,,,,,,,,,,,,,,,,,,,,,,,,,,,,,,,,,,,,,,,,,,,,,,,,{11}3x,,4x,,5x,,6x,,{24},6x,5x,4xqq3^4-8[8:17]*pp5b[8:8],3x,,,,,,,,,,,,,,,,,,,,,,,,,,,,,,,,,,,,,,,,,,,,,,,,,,E
