&title=5月のせいにして。
&artist=獅子神レオナ
&first=0
&des=五楽沢レオ
&clock_count=4
&lv_5=13
&inote_5=(152.00)
{8},,,,,,,,
{8},,,,,,,,
{8}5h[8:22]/3,,,,{32}E1,B8,{16},,,,,,,
{32}B7,E7,,,{8},,,{32}B4,E5,,,{8},,,
{8}2,,4,,1,,3,,
{8}2/6,2/6,3/7,3/7,4/8,,B2/B3/B6/B7/Cf,,
{8}2h[8:1]/8h[8:1],,5h[8:1]/6h[8:1],,2h[8:1]/8h[8:1],,5h[8:1]/6h[8:1],,
{8}2/7,4,3/5,3-1[8:1]/5,,3/7,6,5,
{8}8h[8:1]/4h[8:1],,6h[8:1]/2h[8:1],,4h[8:1]/8h[8:1],,2h[8:1]/6h[8:1],,
{8}1/4,3,4/8,7,1-4[8:1]/5-8[8:1],4/8,1/5,,
{8}6h[8:1]/5h[8:1],,1h[8:1]/2h[8:1],,6h[8:1]/5h[8:1],,1h[8:1]/2h[8:1],,
{8}6/3,4/5,7/2,7<4[8:1]/2,,4/7,3,1,
{8}8h[8:1]/6h[8:1],,2h[8:1]/4h[8:1],,3h[8:1]/6h[8:1],,1-5[8:1]/8,,
{8}1/7bp3[8:1],,7/2b-6[8:1],,8b-3[8:1]*-5[8:1]/2,,,,
{16}2x,4,2,4,2h[8:3],,5,,
6,,6h[8:2],,,,3,,
{8}4-8[8:1],5-1[8:1],,,,3,2/7,2,
{16}6,5,6,5,6h[8:3],,4,,
3,,3h[8:2],,,,7,,
{8}8-4[8:1],2-6[8:1],,,,7,2,5,
{16}3,8,3,8,3h[8:3],,1,,
7,,7h[8:2],,,,4,,
{8}5>2[8:1],6<1[8:1],,,,3,6,1,
{8}2/5-1[8:1],2/5,,4,3-6[8:1]/8,3/8,,7<2[16:3],
{8}7/5,,,B2/B4/B6/B8/Cf,,,,,
{16}2,1,2,1,2h[8:3],,8,,
7,,7h[8:2],,,,5,,
{8}4/3p6[16:3]*-6[16:3],3/4,,,,5,2/6,2,
{16}7,8,7,8,7h[8:3],,1,,
2,,2h[8:2],,,,5,,
{8}3/6,3/6>3[8:1]*-3[8:1],,,,1,2/4,3,
{16}8,4,8v5[8:1],4,8v3[8:1],,,,
,,,,,,6,,
{8}5/1-5[8:1],1/5-3[8:1],,,,6qq1[8:3],6,2,
{8}2,,4,,3>1[8:1]/8<6[8:1],,3/8,,
{8}2/7,4/5,3/6z2[8:2],3/6,,,1,,
{8}3/4<7[8:2],,,1,1,,2/8,,
{16}3/4,,,5/6,,,4/5,,
4v2[8:1]/5v7[8:1],,,,,,,,
{8}1h[8:6]/8h[8:2],,,,6h[8:4],,,,
{8}5-3v2[8:4]*s1[8:4],,,,,,,,
{8}3-1[8:1]/6-4[8:1],,3/6,,8w4[8:1],1/7,8,,
{8}5x/1x<6[8:1],3,4-8[8:1]/1,2,3/4,,5/6,1/8,
{8}4/3V14[8:2]*pp4[8:2],,,,,,6x<1[8:1]/5x,6x/5hx[8:1],
{8},,4p7[8:1]/3>8[8:1],4/3,,,2/6,4,
{8}5/7,8,1-5[8:1]/6,2,3/1w5[8:1],,1,,
{8}3/7,5,4/6,1,3/8<4[8:2],,4>8[8:2],,
{8}8<2[16:6],,C,,,,3x>8[8:1]/4x,3x/4hx[8:1],
{8},,5q2[8:1]/6<1[8:1],5/6,,,5/3,2,
{8}1/6,8,4/7,2/5,3h[8:1]/6h[8:1],{16},,8/1-3[8:1]*-5[8:1],,,,
{8}1-4[8:1]*-6[8:1],,1-3[8:1]*-5[8:1],,1,,4/6,8,
{8}1/5,3,4/8,6,2h[8:1]/5h[8:1],,4/7-3[8:1]*-5[8:1],,
{8}7-2[8:1]*-4[8:1],,7-3[8:1]*-5[8:1],,7,,1/4,3,
{8}4/8,6,1/5,3,4h[8:1]/6h[8:1],,8/2-6[8:1]*-4[8:1],,
{8}2-7[8:1]*-5[8:1],,2-6[8:1]*-4[8:1],,2,,3/7,1,
{8}4/5,7,6/2-8-3-5[16:5],3/7,2/Ch[8:2],,,,
{8}6bx/3xb>6b[8:6]*p6b[8:6],,,,,,,,
{16},,,,E5,,,,
C,,,,E1,,,,
{8}2h[8:6]/7,,,4,4h[8:10],,,,
{8}A1/B1,,A6/B6,,5hx[8:2],,,,
{8}3/8-6[8:1],,1-5[8:1],,2-4[8:1],,,,
{16}3/7h[16:3],,,6h[16:3],,,5h[8:1],,
4>2[8:1]*<7[8:1],,,,,,,,
{8}1-5[8:2]/8,,5-2[8:2],,2-7[8:2],,7-4[8:2],,
{8}4-1[8:2],,1,,6,,B8/B1/E1f/E2/E8/B2/B7,,
{8}3hx[8:3],4,4,6h[8:3],5,5,2h[8:2],4,
{8}7h[8:2],5,1h[8:2],4,7<6-3[8:1]*-3[8:1],,7,,
{8}2h[8:3],1,1,7h[8:3],8,8,3h[8:2],1,
{8}6h[8:2],8,4h[8:2],1,5v2[8:1]*v8[8:1],,5,,
{16}1/6,,3,4,2,,6,5,
8,,3,5,1,,1h[8:1]/7h[8:1],,
{8},4/6V47[8:2],6/4-1[8:1],,,,3/8,3,
{8}2/5h[8:1],4,3h[8:1]/8,6,5h[8:1]/4,1,6/5h[8:1],8,
{16}2/7,,3,4,3,,6,5,
6,,3b/8b,,3b/8b,,,,
{24}E1,E2,E3,
E4,E5,E6,
E7,E8,E1,{8}C,
,2x/7x,2hx[8:1]/7hx[8:1],,
{8}3/4,7/8,5/6,2/1>6[16:3]*V35[16:3],,A3f,,,
{8}8bx-5[8:4],,,,,,1-4[8:4],,
{8}8-5[8:4],,,,,,1>4[8:4],1h[8:1],
{8},,8<5[8:4],8,,,1q4[8:6],1,
{8},,,,,,,,
{8}Chf[8:24],,3x,,,,2,,
{8},,1,,,,8,,
{8},,7,,,,6-2b[8:1],,
{8},,,,1-4[8:1]/8-5[8:1],,,,
{8}6x/2x<7[8:1],3,4-8[8:1]/2,5,2/4,,5/6,1/8,
{8}3/4V25[8:2]*pp5[8:2],,,,,,6x<1[8:1]/4x,6/4hx[8:1],
{8},,3>8[8:1]/5v8[8:1],3/5,,,2/6,4,
{8}5/7,8,1-5[8:1]/6,2,1/4w8[8:1],,4,,
{8}2/6,3,5/6,7,4>1[8:1]/8<5[8:1],,4q8[8:1]/8q4[8:1],,
{8}4/8<1[8:2],,C,,,,3x>8[8:1]/5x,3x/5hx[8:1],
{8},,6<1[8:1]/4v1[8:1],6/4,,,7/3,5,
{16}2/6,,3,4,2/5,,6,5,
4/7,,1/8,,2-6[8:1]/7-1[8:1],,,,
{8}7-3[8:1]/2-4[8:1],,2-6[8:1]/7-1[8:1],,2/7,,4/7,5,
{8}1/6,3,4/8,7,1h[8:1]/6h[8:1],,8-4[8:1]/3-1[8:1],,
{8}3-7[8:1]/8-6[8:1],,8-4[8:1]/3-1[8:1],,8/3,,6/5,2,
{8}8/3,5,2/7,4,5h[8:1]/3h[8:1],,1-5[8:1]/6-8[8:1],,
{8}6-2[8:1]/1-3[8:1],,1-5[8:1]/6-8[8:1],,1/6,,4/6,1,
{8}3/5,7,1/2V86qq5[16:5],3/8,{16}2/7h[8:2],,,,,,,,
{8}3bx>5pp8b[8:12]/6bx<4qq1b[8:12],,,,,,,,
{8},,,,,,,,
{8}7h[8:1]/4h[8:1],,5h[8:1]/2h[8:1],,4h[8:1]/7h[8:1],,2h[8:1]/5h[8:1],,
{8}4/8,6,1/5,3,8v5[8:1]/4v1[8:1],5/1,8/4,,
{8}3h[8:1]/6h[8:1],,8h[8:1]/7h[8:1],,3h[8:1]/6h[8:1],,8h[8:1]/7h[8:1],,
{8}3/6,5/4,2/7,2>5[8:1]/7,,5/2,6,8,
{8}1h[8:1]/3h[8:1],,7h[8:1]/5h[8:1],,6h[8:1]/3h[8:1],,8-4[8:1]/1,,
{8}8/2bq6[8:1],,2/7b-3[8:1],,1bq5[8:1]/7,,8bw4[8:1]/1,,
{8}8bV26b[8:4]*V62b[8:4],,,,,,,{16}5b,5b,
{1}5b,,
