&title=Under the same sky
&artist=hinode
&first=0.05
&des=paff
&lv_5=13
&inote_5=(150)
{4},,
{4}3h[4:1]/6h[4:1],,
{16}2/4,,3,3,5,,6,,2h[4:1]/8-4[8:1],,,,8,,,,
{16}7/5,,6,6,4,,3,,7h[4:1]/1-5[8:1],,,,1,,,,
{16}2/4,,3,3,5,,7,,1-5[8:1],,,,1<6[4:1],,,,
{16}6>3[4:1],,,,3>8[4:1],,,,8<5[4:1],,,,
{16}4,,,,2b-5[8:1],,,,28,,,,6-1[8:1],,,,64,,,,
{16}2h[16:3],,,3h[16:3],,,4h[8:1],,7p4[16:5],,,,3,,,,
{16}1>4[8:1],,,,7,,,,8-6[8:1]/5-1[8:1],,,,58,,,,
{16}2h[16:4]/4-7[8:1],,,,4,,,,1-5[16:2]/6h[4:1],,,,1,,,,
{16}8<5[8:1]/4b,,,,48,,3,3,4v7[8:1],,,3,,,2,,
{16}1<6[8:1],,,,5-8[8:1],,,,5-2[8:1],,,,7h[4:1],,,,
{16}1>4[8:1],,,,51,,6,6,5v2[8:1],,,6,,,7,,
{16}8>3[8:1],,,,4-1[8:1],,,,4-7[8:1],,,,2,,,,
{16}7h[8:1]/5h[8:1],,,,3h[8:1]/4h[8:1],,,,13,,,28,,,1q4[8:3]/7p4[8:3],,
{32},,,,,,,,,,,,,,,,,,,,,,,,18,,,,,,,,
{8}2b/7b,2b/7bqq4[8:7],,,,,,,,,,,
{16}3,,,4,,,5,,
{8}6b/3b,6b/3bqq8[8:7],,,,,,
{16}7,6,5,,,,,,,,6-4[8:1],,,,3,,,,
{8}5b/2b,5b/2bqq5[8:5],,,,,,,7pp4[8:5],,,4,,3,,,
{16}2b-5[8:1],,2,,5,,,,7-4[8:1],,,,3,,,,
{16}3,,2q5[16:5]/4,,,,26,,,,,,8b,,,,
{16}5-3[8:1]/7,,,,7-5[8:1],,,,2,,2,,4-6[8:1],,,,
{16}1,,1,,7-5[8:1],,,,7/4,,,3,,,2,,
{16}4-6[8:1],,,,2-4[8:1],,,,7,,7,,5-3[8:1],,,,
{16}8,,8,,2-4[8:1],,,,62,,6,,3,,3,,
{16}2-8[8:1]/8,,,,5,,,,6-1[8:1],,6,,2,,,,
{16}3-1[8:1],,,,4,,,,5V71[16:3],,,1,,,2,,
{16}3-5[8:1],,3,,6,,6,,7-4[8:1],,7,,2,,2,,
{16}3,,3,,53,,6,,72,,2,,8/1,,8,,
{16}2>5[6:1]/7,,5,,6,,7,,8h[8:1],,5h[8:1],,6h[8:1],,3h[8:1],,
{16}4V61[4:1],,,,2,,2,,3,,3,,28,,,,
{16}7<4[6:1],,4,,3,,2,,1h[8:1],,4h[8:1],,3h[8:1],,6h[8:1],,
{16}5h[8:1],,6h[8:1],,7h[8:1],,8h[8:1],,1h[8:1],,2h[8:1],,3,,5,4,
{16}3/6-1[8:1],,,,6/3<6[8:1],,,,3/7-3[8:1],,,,7/1,,,,
{16}1-5[8:1],,1,,6-1[8:1],,6,,3-7[8:1],,3,,8-4[8:1],,8,,
{8}1w5[8:1],,1,,8w4[8:1],,8,,
{8}2b/6b,2b-7[8:1]/6b-3[8:1],,2b/6b,,5,6,7,
{16}8<5[6:1],,4,,3,,2,,1h[8:1],,4h[8:1],,3h[8:1],,6h[8:1],,
{16}5V38[4:1],,,,7,,7,,6,,6,,17,,,,
{16}1>4[6:1],,5,,6,,7,,8h[8:1],,5h[8:1],,6h[8:1],,3h[8:1],,
{4}4q8[8:1],4/1q5[8:1],1/6<2[8:1],6/4qq2[8:1]*pp6[8:1],
{16}4b,,,,34,,2,,18,,7,,56,,3,,
{16}4/2-5[8:1],,2,,5,,6,,7<4[8:1],,7,,1,,2,,
{8}3-8[8:1],,3/7-4[8:1],,7/2<7[8:1],,2,5bpp4[8:3],
{8},,3,,2,,1/7-3[8:1],,
{8}2-5[8:1]/7,,6/2,,7pp2[16:5],,3b,3bq6[60#7:1]*q6[60#7:1],
{4},,,,
{16}1b<6[8:1]/2,,,3,1,,2,,7/1>4[16:2],,,6,1q5[8:1],,7,,
{16}18,,,,37,,,,6h[8:1]/5h[8:1],,,,2h[8:1]/4h[8:1],,,,
{16}8>3[8:1]/7,,,6,8,,7,,2/8<5[16:2],,,3,8p4[8:1],,4p6[16:3],,
{16}8,,,,1,,,,5w1[8:1],,,,,,,,
{16}7pp6[4:1],,,,47,,,,3pp2[4:1],,,1,3,,8,,
{16}7-3[8:1],,,,7/1<6[8:1],,2,,1-5[8:1]/4-2[8:1],,,,14,,,,
{16}2-6[8:1],,,,2/8>3[8:1],,7,,5-8[8:1],,,4,5,,3,,
{16}2-5[8:1],,1,8,2,,6,,4-7[8:1]*-1[8:1],,53,,4b,,,,
{16}8<5[8:1]/3,,1,2,8,,2,,6/1>4[8:1],,8,7,1-5[8:1],,5q3[16:3],,
{16}1,,,,8,,,,3h[8:1]/4h[8:1],,,,7h[8:1]/5h[8:1],,,,
{16}2h[4:1]/8<5[8:1],,,,8,,3,3,4pp6[8:1],,,34,,,2,,
{16}1-5[8:1],,8,,6-1[8:1],,7,,4<7[8:1],,3,,2-6[8:1]*-5[8:1],,1,,
{16}2b,,,,34,,2,,18,,6,5,7,,18,,
{16}24,,3,5,4,6,5,,7/1-5[8:1],,2,,1/3,,3,,
{8}2b>5[8:1],1,2/8b-3[8:1],7,6b-1[8:1]/8,5,4b/6,3,
{4}4b<7[8:1]/2b-5[8:1],,1b-6[8:1]/3b>8[8:1],,
{1}2bqq4[1:1]/6bpp4[1:1],
{8},,,,24,3,56,7,
{16}48,,6,6,4-8[8:1],,3,,1>4[8:1]/4<7[8:1],,,,14,,,,
{16}26,,3,3,5-1[8:1],,6,,8<5[8:1]/5>2[8:1],,,,85,,,,
{16}37,,6,6,4,,2,,1>4[8:1],,,,1/6p2[8:1],,,,
{8}6/8<5[8:1],,8/3q7[8:1],,1>4[8:1]/3,,18,,
{8}5/6bpp6[4:1],,3,,2pp2[4:1],,7,,
{16}7h[16:3],,,6h[16:3],,,5h[8:1],,2q5[16:5],,,,6,,,,
{16}8<5[8:1],,,,2,,,,2>5[8:1],,,,6,,,,
{4}7-5[8:1],4,3-5[8:1],6,
{1}7>6[16:7]/4h[4:3],
{8}6,5,4,3q5[16:5],,,,,
{8}6,5,4,3q4[16:5],,,,,
{8}6,5,4<7[8:1],3,2,1,8,7,
{4}6pp3[16:9]/1h[8:6],,,,
{8}1b,
