&title=Sqlupp
&artist=owl*tree feat. yaki*tree
&first=0
&des=ラビ星 feat. Rlnneko
&lv_5=14
&inote_5=(183)
{4},,,,
{8}6h[8:5],5,5,4,3,3h[4:3],,4,5,6,7,7h[8:3],,,6,,
{8}3h[8:5],4,4,5,6,6h[4:3],,5,4,3,2,2h[4:1],,1,28,37,
{8}6h[4:1],5,4,4,35,3h[4:2]/5,,4,5,5,46,4/6h[4:1],,8,6,4,
{8}2,2,13,13,48,48,57,57,6,6h[4:2],5,5,4,4,3h[4:1],{32}2,1,8,7,
{4}6bV48[4:1],,{8},2,34,45,5-1[8:1]/6h[4:1],,5,6,,7,6,45,3h[4:1],,
{8}1,3-8[8:1],,3,4,,{16}6,5,7,,3,4,2,,{8}5,5,4/6h[4:1],{32}7,8,1,2,
{4}3bV51[4:1],,{8},7,56,45,3h[4:1]/4-8[8:1],,4,3,,2,3,45,6,6h[4:1],8,8-4[8:1],6,8,,7,
{16}5,6,5,6,4,5,4,5,{8}3,34,2h[4:1],{32}1,8,7,6,
{4}5bV37[4:1],{8}2,1,,1,24,35,4-8[8:1]/6h[4:1],,4,6V48[4:1],,6,1,1,2,8b/1bpp4[4:2],,5,6,6,7,7,8,75,1,42,8,5/7h[8:3],6,{32}8,1,2,3,
{4}4bV62[4:1],{8}7,8,,8,57,46,3h[4:1]/5-1[8:1],,5,3V51[4:1],,3,8,8,
{24}7,6,5,{8}4,1h[4:1],{24}8,7,6,{8}5-1[8:1],,,,
{24}2,3,4,{8}5,8h[4:1],{24}1,2,3,{8}4-8[8:1],,,,
{24}7,6,5,{8}4,1h[4:1],{24}2,3,4,{8}5-1[8:1],,56,,
{24}2,3,4,{8}5,8h[4:1],{24}7,6,5,{8}4-8[8:1],,34,,
{24}17,26,35,{8}4p2[8:8]*q6[8:8],{2},,{4},
{8},8h[8:5],7,6,5-1[8:1],,5,,7,7h[4:1],6,5h[4:1],6,6-2[8:1],7,6,,
{8}8h[8:5],1,2,3V51[4:1],,3,,7,7h[4:1],6,5h[4:1],,8<5[8:1],5,8,,
{8}1h[8:5],2,3,4-8[8:1],,4,,2,2h[4:1],3,4h[4:1],3,3-7[8:1],2,3,,
{8}1,28,3/7h[4:4],,6,8,1,2,3,4,5,67,18,23,45,,
{8}1h[8:5],2,3,4-8[8:1],,4,,2h[4:1],3,1h[4:1],3,2h[8:3],3-7[8:1],1,3,,
{8}1h[8:5],8,7,6V48[4:1],,6,,2,2h[4:1],3,4h[4:1],,1>4[8:1],4,1,,
{8}8h[8:5],7,6,5-1[8:1],,5,,7h[4:1],6,8h[4:1],6,7h[8:3],6-2[8:1],8,6,,
{8}8,17,2h[4:4]/6,,3,1,8,7,6,5,4,23,18,67,4V61[8:1]/5V38[8:1],{2},
{16}4,5,4,5,3,4,3,4,{8}2,1>4[8:1]/8,2,1/7-3[8:1],,5-1[8:1]/7,,45,,2h[4:1],3,3,
{16}4,2,4,2,5,3,5,3,{8}6-4[8:1],4-8[8:1],6,2h[4:1],,1,34,56,7/8h[16:3],1b,1b,,
{16}3,5,3,5,4,6,4,6,{8}5-1[8:1],7-3[8:1],5,7,,8w4[8:1],,8,,26,17,17,8,8,
{16}3,4,3,4,3,,6,5,7,5,6,,2,5,3,4,2,5,3,4,{8}1b,28,37,46,
{16}5,4,5,4,6,5,6,5,{8}7,8<5[8:1]/1,7,8/2-6[8:1],,4-8[8:1]/2,,54,,7h[4:1],6,6,
{16}5,7,5,7,4,6,4,6,{8}3-5[8:1],5-1[8:1],3,7h[4:1],,8,65,43,2/1h[4:1],8b,8b,,
{8}7-4[8:1],5,7b,3-8[8:1],1,3b,7,7b,2-5[8:1],4b,2,6-1[8:1],8b,6,2b,2,,
{24}8,7,6,{4}1/5b,{24}1,2,3,{4}4b/8,{24}7,6,5,{4}4b/1,{24}2,3,4,{4}5b/8,{24}6,5,4,{8}3b/1,1,,
{24}7b/8,1,2,{4}3b/4,{24}1/2b,8,7,{4}5/6b,{32}1b,28,37,46,{4}5bs1[8:3],,,
{32}3,4,5,6,7,8,1,2,{4}3h[4:4]/7b,,,,,
{8},1/8h[256:1],,2,3,4,6,6,5.,6h[8:5],7,8,1-5[8:1],,1,,8,8,,,,
{16}4,5,{32}2,3,4,,{16}8,8,1,,{32}7,6,5,,{16}1,1,8,,{32}3,4,5,,{16}8,8,2,,{32}6,5,4,,{16}1,1,7,7,
{8}1h[8:1],3h[8:1],5h[8:1],7h[8:1],2-6[8:1],2,1-5[8:1],1,8-4[8:1],8,7,7,6b,6,56,56,45,45,34,34,,{32}15,26,37,48,{4}1h[4:3]/5b>5[4:2],,,{4},
{8},1h[256:1]/8,,7h[256:1]/6,,4h[256:1]/5,,2-5[8:1],1,2,7,7,8,7-5[8:1],1,7>1[8:1],2,7-3[8:1],3,7,4,56,,
{16}7,8,7,8,,,3,4,3,4,,,7,8,6,5,,,3,4,2,1,,,78,16,25,34,,,
{16}6,5,6,3,4,3,7,6,7,2,3,2,8,1,8,1,{4}8bz4[8:1],,8w4[8:1],8b,
{24}2,3,4,{8}5,8h[4:1],{24}1,2,3,{8}4-8[8:1],,43,,
{24}7,6,5,{8}4,1h[4:1],{24}8,7,6,{8}5-1[8:1],,65,,
{24}2,3,4,{8}5,8h[4:1],{24}7,6,5,{8}4-8[8:1],,43,,
{24}7,6,5,{8}4,1h[4:1],{24}2,3,4,{8}5-1[8:1],,65,,
{24}82,73,64,{8}5q7[8:8]*p3[8:8],{2},,{4},
{8},2,2,4h[8:1],3h[4:2],,5,,6,6h[8:3],5,4,3,3h[8:2],4,5,,
{8}7,7,5h[8:1],6h[4:2],,4,,3,3h[4:1],4,5h[4:2],,4,6,7,,
{8}3,3,4h[8:1],2h[4:2],,3,,6,6h[8:3],5,4,3,3h[4:1],4,5,,3,5,7h[4:1],,
{8}8,64,53,42,31,82,71,
{8}6b/4b,8bV25[8:1]/2b,5bV71[8:1]/3b,8b/7b,,,4b,,
{8}8/7-4[8:1],,5<8[8:1]/7,,2-6[8:1]/5,3,1-5[8:1]/2,8,1/4>1[8:1],3,47,6h[4:2],,5,7,8,
{8}1>4[8:1],,1/8-4[8:1],,5-1[8:1],5,7,7V51[4:1],,2,3,4h[4:1],,5,4,3,
{8}1/2-5[8:1],,4>1[8:1]/2,,7-3[8:1]/4,6,8-4[8:1]/7,1,8/5<8[8:1],6,52,3h[4:2],,4,2,1,,
{8}68,57,46,35,24,13,28,5b/7b,1b/6b,2b/4b,3bV51[6:1]/8bV62[6:1],,,,,
{8}6h[4:1]/3,5,4,6h[4:1]/3,5,4,6h[4:1]/3,5,4,36,{16}4,5,3,5,4,6,4,5,3,5,4,6,,,{8}7h[8:1],{16}8,7,8,7,1,6,1,6,2,5,2,5,3,4,3,4,3,4,3,4,{32}1,2,3,4,5,6,7,8,1,2,3,4,5,6,7,8,
{32}1,28,37,46,{8}5p3[8:8]*q7[8:8],{2},,{4},,2b/7b,
{16}4,5,4,5,2,4,3,8,6,7,1,3,2,7,5,6,{32}2b,1,8,7,{16}4b,4,{32}2b,3,4,5,{16}8b,8,{32}6b,5,4,3,{8},{12}2b/5b-1[8:1]*-1[8:1],36,47,5b/8b,
