&title=THE iDOLM@STER
&artist=THE iDOLM@STER
&first=7.46
&des=Producer-san
&lv_7=舞
&inote_1=(165)
{4}1,1,1,1,1,1,1,1,1,1,1,1,1,1,1,1,1,1,1,1,1,1,1,1,1,1,1,1,1,1,1,1,1,1,1,1,1,1,1,1,1,1,1,1,1,1,1,1,1,1,1,1,1,1,1,1,1,1,1,1,1,1,1,1,1,1,1,1,1,1,1,1,1,1,1,1,1,1,1,1,1,1,1,1,1,1,1,1,1,1,1,1,1,1,1,1,1,1,1,1,1,1,1,1,1,1,1,1,1,1,1,1,1,1,1,1,1,1,1,1,1,1,1,1,1,1,1,1,1,1,1,1,1,1,1,1,1,1,1,1,1,1,1,1,1,1,1,1,1,1,1,1,1,1,1,1,1,1,1,1,1,1,1,1,1,1,1,1,1,1,1,1,1,1,1,1,1,1,1,1,1,1,1,1,1,1,1,1,1,1,1,1,1,1,1,1,1,1,1,1,1,1,1,1,1,1,1,1,1,1,1,1,1,1,1,1,1,1,1,1,1,1,1,1,1,1,1,1,1,1,1,1,1,1,1,1,1,1,1,1,1,1,1,1,1,1,1,1,1,1,1,1,1,1,1,1,1,1,1,1,1,1,1,1,1,1,1,1,1,1,1,1,1,1,1,1,1,1,1,1,1,1,1,1,1,1,1,1,1,1,1,1,1,1,1,1,1,1,1,1,1,1,1,1,1,1,1,1,1,1,1,1,1,1,1,1,1,1,1,1,1,1,1,1,1,1,1,1,1,1,1,1,1,1,1,1,1,1,1,1,1,1,1,1,1,1,1,1,1,1,1,1,1,1,1,1,1,1,1,1,1,,,,Cf,
&inote_5=(165)
{4}
,,,,,,,,
7h[4:2]/4h[4:2],,,,1h[4:2]/8h[4:2],,,,1-4b[4:2]*-6b[4:2],,,,
65,65,43,3b/4-1[8:1],5-8[8:1],4-1[8:1],5-8[8:1],
4-1[8:1],5-8[8:1],4-1[8:1],5-8[8:1],4,1^4[4:2]/8^5[4:2],,,,
{8}6,6,5,5,4,4,3b,,
{4}8h[8:12]/2-6[8:1],,6-3[8:1],,4-1[8:1],,1-5[8:1],,
{8}8,7,6,,2,6,4^1[8:4],8^5[8:3],,,,,,
8h[8:15],,,6-3[8:1],,,,3-7[8:1],,,,7-4[8:1],,,,4-1[8:1],,,,
2-6[4:1]/7-3[4:1],,,,,,37,8b/4b,,,,,,1,2,3,4,5,6,7,18,1^4[4:2]/8^5[4:2],,,,,,,,
8,7,6,5,4,3,2^7[8:1],7^4[8:1],,,7b-2[16:1],
,,,,,
3b,4b,6b,3-8[8:1],,1b,,6-1[8:1],,8b,,2-5[8:1],,4b,,7-4[8:1],,5b,,
{8}
2,1,8,7-3[8:1],,,,7h[4:1],,6h[4:1],,5h[4:1],,4,,3,
3h[4:1]/5,,4,,6h[4:1]/4,4,5,,
26,,37,,26,,3h[4:1]/7,,
2-7[8:1],3,4,5,,6h[4:2],,7-2[8:1],,,,5,,4,,
7V51[4:1]/1V37[4:1],,,,,6,7,18,1b/2,
,,,,,1,2,3,75,75,4,4,71,72,,3,7,7,,,73,73,4,5,
26,26,5,5,2,4pp4[4:1]*qq4[4:1],,4z8[4:1],,,,,,2b,8b,3b,4-7[8:1],,5b,,5-2[8:1],,4b,,
5-8[8:1]/4,,5b/4,,5-8[8:1]/4,,4b/5,,
17,1,25,2,37,3,45,4,,82,8,74,7,62,6,7,
2-7[4:1]/8,3h[8:3],,,,,1^4[8:1]/8^5[8:1],,,,,,8h[4:1],,4,5,
8/5h[4:1],8,6,,1/4h[4:1],1,3,3,,2,1,8,7,6,5,4,3,2,1,8,
7h[8:2],,,,4b-1[8:1]/5b-8[8:1],,,,
,2,3,4,
5,6-3[8:1],,6<1[4:1],,2b,,,
3-6[8:1],6<1[4:1],,1-4[8:1],,5b,,,
8,7h[4:1],,6h[4:1],,5h[4:1],,4-1[4:1],,,,,,6,7,8,
2,3,4,5-2[8:1],,,,,7,6,5,4-7[8:1],,,,,
1,2h[4:1],,3h[4:1],,4h[4:1],,5-8[4:1],,,,,,1,2,3,
76,76,,5-8[8:1]*-8[8:1],,1,,,23,23,,4-1[8:1]*-1[8:1],,8,,,
2-5[8:1],2,,8-5[8:1],,,,4h[8:7],8b,,8b,,8b,,8b,,
76,76,,5-8[8:1]*-8[8:1],,1,,,
23,23,,4-1[8:1]*-1[8:1],,8,,,
2^7[8:3]/6,2/6h[4:2],,,,,,
4-1[4:2]*-1[4:2]/5h[4:3],,,,,,,,,
7^2[4:5]/3^6[4:5],,,,,,,,,,,,,,,,
2-7[4:2]/6-3[4:2],,,,,,,,
1^4[8:1]/5^8[8:1],,,,8^5[8:1]/4^1[8:1],,,,
8-3[4:2]/4-7[4:2],,,,,,,,4-1[4:2]/8-5[4:2],,,,,,,,
1^4[4:2]/5^8[4:2],,,,,,,,
8-3[4:1]/4h[8:4],,,,,,,,
{4}
3h[4:1],4h[4:1],5h[4:1],8b,
6h[4:1],5h[4:1],4h[4:1],1b,
7^4[8:1]/4^1[8:1],,2^5[8:1]/5^8[8:1],,
8b,8b,8b,8b,
3h[4:1],4h[4:1],5h[4:1],8b,
6h[4:1],5h[4:1],4h[4:1],1b,
{8}6-3[8:3]/4h[8:5],,,,,,,4-1[4:2]/5h[4:3],,,,,,,,,
2h[4:3]/5h[4:3],,,,,,,,4h[4:3]/5h[4:3],,,,,,,,
7h[4:3]/4h[4:3],,,,,,,,1h[4:2]/5h[4:2],,
,,,,5^8[4:2],,,,,,,,8qq8[4:2],,,,,,,,8-5[8:1],,8b,,,,,,,,,,,,,,,,,,,,,,,,,
,,,,,8-5[4:7],,8b,,,,,,,,,,,,,,,,,,,,,,,,
Ch[1024:1]f,
&inote_7=(165)
{4}
,,,,,,,,
7h[4:2]/4h[4:2],,,,1h[4:2]/8h[4:2],,,,1-4b[4:2]*-6b[4:2],,,,
65,65,43,3b/4-1[8:1],5-8[8:1],4-1[8:1],5-8[8:1],
4-1[8:1],5-8[8:1],4-1[8:1],5-8[8:1],4,1^4[4:2]/8^5[4:2],,,,
{8}6,6,5,5,4,4,3b,,
{4}8h[8:12]/2-6[8:1],,6-3[8:1],,4-1[8:1],,1-5[8:1],,
{8}8,7,6,,2,6,4^1[8:4],8^5[8:3],,,,,,
8h[8:15],,,6-3[8:1],,,,3-7[8:1],,,,7-4[8:1],,,,4-1[8:1],,,,
2-6[4:1]/7-3[4:1],,,,,,37,8b/4b,,,,,,1,2,3,4,5,6,7,18,1^4[4:2]/8^5[4:2],,,,,,,,
8,7,6,5,4,3,2^7[8:1],7^4[8:1],,,7b-2[16:1],
,,,,,
3b,4b,6b,3-8[8:1],,1b,,6-1[8:1],,8b,,2-5[8:1],,4b,,7-4[8:1],,5b,,
{8}
2,1,8,7-3[8:1],,,,7h[4:1],,6h[4:1],,5h[4:1],,4,,3,
3h[4:1]/5,,4,,6h[4:1]/4,4,5,,
26,,37,,26,,3h[4:1]/7,,
2-7[8:1],3,4,5,,6h[4:2],,7-2[8:1],,,,5,,4,,
7V51[4:1]/1V37[4:1],,,,,6,7,18,1b/2,
,,,,,1,2,3,75,75,4,4,71,72,,3,7,7,,,73,73,4,5,
26,26,5,5,2,4pp4[4:1]*qq4[4:1],,4z8[4:1],,,,,,2b,8b,3b,4-7[8:1],,5b,,5-2[8:1],,4b,,
5-8[8:1]/4,,5b/4,,5-8[8:1]/4,,4b/5,,
17,1,25,2,37,3,45,4,,82,8,74,7,62,6,7,
2-7[4:1]/8,3h[8:3],,,,,1^4[8:1]/8^5[8:1],,,,,,8h[4:1],,4,5,
8/5h[4:1],8,6,,1/4h[4:1],1,3,3,,2,1,8,7,6,5,4,3,2,1,8,
7h[8:2],,,,4b-1[8:1]/5b-8[8:1],,,,
,2,3,4,
5,6-3[8:1],,6<1[4:1],,2b,,,
3-6[8:1],6<1[4:1],,1-4[8:1],,5b,,,
8,7h[4:1],,6h[4:1],,5h[4:1],,4-1[4:1],,,,,,6,7,8,
2,3,4,5-2[8:1],,,,,7,6,5,4-7[8:1],,,,,
1,2h[4:1],,3h[4:1],,4h[4:1],,5-8[4:1],,,,,,1,2,3,
76,76,,5-8[8:1]*-8[8:1],,1,,,23,23,,4-1[8:1]*-1[8:1],,8,,,
2-5[8:1],2,,8-5[8:1],,,,4h[8:7],8b,,8b,,8b,,8b,,
76,76,,5-8[8:1]*-8[8:1],,1,,,
23,23,,4-1[8:1]*-1[8:1],,8,,,
2^7[8:3]/6,2/6h[4:2],,,,,,
4-1[4:2]*-1[4:2]/5h[4:3],,,,,,,,,
7^2[4:5]/3^6[4:5],,,,,,,,,,,,,,,,
2-7[4:2]/6-3[4:2],,,,,,,,
1^4[8:1]/5^8[8:1],,,,8^5[8:1]/4^1[8:1],,,,
8-3[4:2]/4-7[4:2],,,,,,,,4-1[4:2]/8-5[4:2],,,,,,,,
1^4[4:2]/5^8[4:2],,,,,,,,
8-3[4:1]/4h[8:4],,,,,,,,
{4}
3h[4:1],4h[4:1],5h[4:1],8b,
6h[4:1],5h[4:1],4h[4:1],1b,
7^4[8:1]/4^1[8:1],,2^5[8:1]/5^8[8:1],,
8b,8b,8b,8b,
3h[4:1],4h[4:1],5h[4:1],8b,
6h[4:1],5h[4:1],4h[4:1],1b,
{8}6-3[8:3]/4h[8:5],,,,,,,4-1[4:2]/5h[4:3],,,,,,,,,
2h[4:3]/5h[4:3],,,,,,,,4h[4:3]/5h[4:3],,,,,,,,
7h[4:3]/4h[4:3],,,,,,,,1h[4:2]/5h[4:2],,
,,,,5^8[4:2],,,,,,,,8qq8[4:2],,,,,,,,8-5[8:1],,8b,,,,,,,,,,,,,,,,,,,,,,,,,
,,,,,8-5[4:7],,8b,,,,,,,,,,,,,,,,,,,,,,,,
Ch[1024:1]f,
