&title=发财发福中国年 &artist=中国娃娃 &first=0.03 &lv_5=13+ &des_5=Hexxxxa (141){4},,,,{1}1>5p8[2:1]/5<1p4[2:1], {4}1/5,6/2,{2}8-5>4[8:1]/4-1<8[8:1], {4}7/1,5/3h[2:3],1,7, {1}4<2q4b[2:1], {4}2/4-8[8:1],{8}5,6,{4}7/1-5[8:1],{8}3,2, {48}E2f,B2,B3,E4,,,,,,,,,E8f,B7,B6,E6,,,,,,,,,E1f,C,{24}E5,,,,,,,,,,,{4}5pp7[8:1]/4qq2[8:1], 5/4,8v6[8:1]/1v3[8:1],8/1, {12}8x/1x,8x/1x,7x/2x,2x/7xh[8:1],{24},1,2,3,{8}4/6,7,5/3v8[8:1],2, 3b/4b,7,5/2,{24}2,3,4,{8}5/6,7,3/4v1[8:1],2, 4b/6b,8,6/3,{24}3,4,5,{8}6,8,7/1,5/4, 7/2>5[8:1],1,8-4[8:1],1,2-6[8:1],1,8q4[8:1],7, 5/8,5,5,8/2,{32}2x/1x,3x,4x,5x,6x,7x,8x,1x,{8}7x/2xh[2:1],7, {32}E1,E2,E3,E4,E5,E6,E7,E8,{8}E1,4x/8x,{32}4x/8x,5x,6x,7x,8x,1x,2x,3x,{8}1x/4xh[2:1],1, {32}E3,E4,E5,E6,E7,E8,E1,E2,{8}E3,6x/3x,{32}3x/6x,4x,5x,6x,7x,8x,1x,2x,{8}3x/5x,6, {32}1x,2,{16}3,{32}7x,6,{16}5,{32}2x,3,{16}4,{8}8h[16:3],{32}3x,4,{16}5,{8}8h[16:3],{32}2x,3,{16}4,{8}8h[8:1], {32}1x,2,3,4,5,6,7,8,1,2,3,4,{24}5x/6x,7x,8x,{8}1x/2x,8/3,4/7>1p5[4:1],5/6, 7b/4b,2,4,{24}2,1,2,{8}1,3/8,7/4>2v5[4:1],5/6, 7b/4b,1,6,{24}7,8,7,{8}8,6/1,5/2,4/3, 1/2-4[8:1],3,2/1-5[8:1],8,1/2-4-8[4:1],3,2/7-5-1-3b[8:3],7, 7,1,4,4h[8:1],{32}1x,8x,7x,6x,5x,4x,3x,2x,{8}4/1xh[2:1],4, {32}E3,E2,E1,E8,E7,E6,E5,E4,{8}E3,7x/3x,{32}7x/3x,6x,5x,4x,3x,2x,1x,8x,{8}2/7xh[2:1],2, {32}E1,E8,E7,E6,E5,E4,E3,E2,{8}E1,8x/1x,{32}8x/1x,7x,6x,5x,4x,3x,2x,1x,{8}4x/8x,6x/2x, {32}1x,2,{16}3,{32}5x,6,{16}7,{32}2x,3,{16}4,{8}8h[16:3],{32}3x,4,{16}5,{8}8h[16:3],{32}3x,4,{16}5,{8}8h[8:1], {32}4x,5,6,7,8,1,2,3,4,5,6,7,8,1,2,3,{4}5s1[8:1]/4z8[8:1],5/4, {8}2x/7x,{24},,,,,,E3,B3,B4,{8}E5,E7,E8,E1, B4/E4/B3,B7/E8/B8,,,,,,6/5, 7/5,{24},,,,,,E7,B6,B5,{8}E5,E3,E2,E1, B6/E6/B5,B1/E2/B2,,,,,,,{1}1xv4v7[8:11]/6x-2-6[8:11], {8},,,,,,,5/2<3b[8:13], {1}2/5-8-4-1[2:3], {8},,,,,,,,7b/3b, {16}6,5h[16:3],,,{8}1x,5x/8x,5/7,5/6,5x/4x, 2x/8x,6/4,2v5[8:1]/8v5[8:1],5xv7[8:1]*v3[8:1],2x/8x,,,6x/4x, 5x/3x,{16}2,4h[16:7],,,{8}1x-5[8:1],1x,1<6[8:1],,4x>1[8:1], 4x,7<4[8:1],7,2xpp4[8:1],1x<4[8:1],2,{4}1, {8}2b/6b,{16}3,4h[16:3],,,{8}8x,4x/1x,4/2,4/3,4x/5x, 7x/1x,3/5,7v4[8:1]/1v4[8:1],4xv2[8:1]*v6[8:1],7x/1x,,,3x/5x, 4x/6x,{16}7,5h[16:7],,,{8}8x-4[8:1],8x,8>3[8:1],,8x/5x-7[8:1], 6x,5/2v5[8:1],1<6[8:1],2x,{4}1x,7/1>5qq4[2:1], {8}5b,6,7,8-5[8:1],,4,{4}4<8qq7[2:1], {8}1,2,3,4-1[8:1],,8,{4}8p5[2:1], {8}4b,3,2,1-3[8:1],,4,{4}4-7>8[8:1]*-1<8[8:1], 4,5/3,{24}2,1,2,1,2,1,2qq5[8:3],1,2,1,2,1, {8}2b,7,6,6-3[8:1],,6/8,7pp4[8:3],7, 7,2,3,3-6[8:1],,3/1,2,2x/8x, 6x/4x-8[8:1],7,4,6-2[8:1],1,6,{4}4, {12}8x/2x,8x/2x,7x/3x,4x/6x,,,{4}1/5<8[8:1],5/2q5b[4:1], {8}2b/1b,6x,8x,8/1,{4}3/7-4[8:1],7/2q5b[4:1], {8}2b/1b,6x,8x,8/1,{4}7qq5[8:1]*-3[8:1],7x, 2pp4[8:1],2x/1x<4b[8:1],3b/1b-4b[8:1],7b/1bw5b[8:1], {2}1b,{4}6/4-7[8:1],4/2q5b[4:1], {8}2b/1b,6x,8x,8/1,{4}7/1-5[8:1],1/5pp7b[8:1]*qq3b[8:1], 5b,{8}4/6,3/7,{4}8/2-4[8:1],2x/8x-6[8:1], 8/1-5[8:1],1x/5x<8b[8:1],3b/5b>2b[8:1],5b/7b, {8}1b/8b,{16}2,5,3,6,4,7,5,6,5,6,{8}2q5b[4:1],{16}1,8, {8}2b,6x,8x,1/8,{32}2/7,3,4,5,6,7,8,1,2q5b[4:1],3,4,5,6,7,8,1, {8}2b/7b,6x,8x,8/1,{4}6/2-4[8:1]*v5[8:1],2x, 2/6-8[8:1],6x/1x-3b[8:1]*-4b[8:1],1b-6b[8:1]*-7b[8:1],1bw5b[8:1], {2}1b,{4}7/2-8[8:1],2/5qq5b[8:1]*pp5b[8:1], 5b,{8}1,8/2,{4}7/3-7[8:1],3/5-8b[8:1]*-1b[8:1], 5b,{8}2/7-4[8:1],8/1,{4}7/2,5/1v4[8:1], 1/5v8[32:3],5/1-3[8:1],1/5-7[8:1],1/5, {16}1,8,1,8,1,8,{32}1,2,3,4,{8}5/6,7,3/4-8[8:1],2, 5b/4b,7,1x/5xh[8:1],{32}8,1,2,3,{8}4/5,7,5/4v7[8:1],2, 5b/4b,6,8x/5xh[8:1],{32}7,8,1,2,{8}3/5,7,6/4,2, 5/3-6[8:1],8,3-8[8:1],7,3-7-3[4:1],6,3,5, 5,6,5/4,4/3,{32}2/5,3,4,5,6,7,8,1,{8}7/2h[4:1],7, {32}8x,1x,2x,3x,4x,5x,6x,7x,{8}1x/8xh[4:1],{32}1,2,3,4,5,6,7,8,1,2,3,4,{8}6/5h[4:1],6, {32}6x,7x,8x,1x,2x,3x,4x,5x,{8}1x/6xh[4:1],{32}8,1,2,3,4,5,6,7,8,1,2,3,{8}4/5,7/2, {32}1x-5[8:1],2,{16}3,{32}8x-4[8:1],7,{16}6,{8}1x,8x,{32}1x,2,{16}3,{32}7,6,{16}5,{32}2x,3,{16}4,{32}1x,2,{16}3, {32}8x,7x,6x,5x,4x,3x,2x,1x,8x,7x,6x,5x,4x,3x,2x,1x,{8}8x/7x,6/1,5/2V84[4:1],4/3, 5b/2b,7,5,{32}5x,6x,7x,8x,{8}1x/2x,3/8,4/7V15[4:1],5/6, 7b/4b,2,4,{32}4x,3x,2x,1x,{8}8x/7x,6/1,5/2,4/3, 5/4-8[8:1],3,4/5-7[8:1],6,5/4-2[8:1],3,4/5-1-7[4:1],6, 5/4,3,2,8/4h[8:1],{32}8,7,6,5,4,3,2,1,{8}3/8h[4:1],3, {32}2x,1x,8x,7x,6x,5x,4x,3x,{8}5x/2xh[8:1],{32}4,3,2,1,8,7,6,5,4,3,2,1,{8}8/3,3, {32}3x,2x,1x,8x,7x,6x,5x,4x,{8}3xh[4:1],{32}2x,1x,8x,7x,6x,5x,4x,3x,2x,1x,8x,7x,{8}6x/2x,5x/1x, {32}1x-5[8:1],2,{16}3,{32}5x-1[8:1],6,{16}7,{4}1x,{32}8x,7,{16}6,{32}4x,3,{16}2,{32}7x,6,{16}5,{32}3x,2,{16}1, {32}5x,4x,3x,2x,1x,8x,7x,6x,5x,4x,3x,2x,1x,8x,7x,6x,{2}5xs1[8:1]/4xz8[8:1], {1}2bx>6p1[2:1]/6bx<2p5[2:1], {4}1/5,6/2,{2}8-5>4[8:1]/4-1<8[8:1], {4}7/1,5/3h[2:3],1,7, {1}4<2q4b[2:1], {4}2/4-8[8:1],{8}5,6,{4}7/1-5[8:1],{8}3,2, {32}E3,B3,B4,E5,,,,,E7,B6,B5,E5,,,,,E1,C,{16}E5,,,,,,,{4}7V14[8:1]/2V85[8:1], 7/2,6v8[8:1]/3v1[8:1],3/6, {16}5/4>5b[4:3],,,,,,,E5,,C,,,,E1f, E