&title=Body F10ating in the Zero Gravity Space[DX]
&artist=Camellia
&first=-0.02
&des=om
&des_2=o
&des_3=m
&des_4=omo
&des_5=om
&lv_2=5
&lv_3=9
&lv_4=12
&lv_5=14+
&inote_2=(170){4},{1},,,,{4},{8},3h[1:4],
{4},{8},7,
{1},{4},,,{8},8,
{1},{4},{8},6h[1:4],
{4},{8},2,
{1},{4},,,{8},2,
{1},{4},{8},3,
{4},{8},3,
{4},{8},3,{4},,,{8},6,
{4},{8},6,
{4},{8},6,{4},,,{8},2,
{4},{8},2,
{4},{8},2,{4},,,{8},7,
{4},{8},7,
{4},{8},7-3[2:1],{4},,,{8},2,
{4},{8},2,
{4},{8},2,{4},{8},2,
{4},{8},7,{4},{8},7,
{4},{8},7,{4},{8},7,
{4},{8},4,{4},{8},4,
{4},{8},4,{4},{8},4,
{4},{8},5,{4},{8},5,
{4},{8},5,{4},{8},5,
{4},{8},3/6,{4},,,{8},2/7,
{4},,,{8},4h[4:3]/5h[4:3],
{1},{4},,,{8},2/4,
{4},,,{8},7/5,
{4},,,{8},3h[4:3]/6h[4:3],
{1},{4},,,{8},3/4,
{4},,,{8},5/6,
{4},,,{8},2h[4:3]/7h[4:3],
{1},{4},,,{8},3/6,
{4},,,{8},4/5,
{4},,,{8},1h[4:7]/8h[4:7],
{1},{4},,,{8},2,
,2,
,2,{4},{8},7,,7,
,7,{4},{8},3,,3,
,3,{4},{8},6,,6,
,6,{4},{8},4,,4,
,3x/5x,{4},{8},5,,5,
,4x/6x,{4},{8},7,,6,
,5,,4,,3,,2,
,1x/8x,{4},{8},7bh[2:1],{4},,,{8},2h[2:1],
{4},,,{8},8h[2:1],
{4},,,{8},1,
,1,
,2,,2,,3xh[2:1],{4},,,{8},6h[2:1],
{4},,,{8},4h[2:1],
{1},{8},5,
,5,,5,,B1,{4},{8},B2,
{4},{8},B3,{4},{8},B4,
{4},{8},B8,{4},{8},B7,
{4},{8},B6,{4},{8},B5,
{4},{8},1x,,1,
,2,,3,,5x,,5,
,6,,7,,1-5[4:5],{1},{4},,,{8},7h[2:1],
{4},,,{8},2-5[8:3],
{4},,,{8},7-4[8:3],
{4},,,{8},3>1[8:3],
{4},,,{8},8h[2:1],
{4},,,{8},7<4[8:3],
{4},,,{8},2>5[8:3],
{4},,,{8},6,
,E4,
,E3,,E2,,2h[2:1],{4},,,{8},7-4[8:3],
{4},,,{8},2-5[8:3],
{4},,,{8},6<8[8:3],
{4},,,{8},1h[2:1],
{4},,,{8},3h[2:1],
{4},,,{8},5h[2:1],
{4},,,{8},7-3[2:1],
{4},,,{8},C,
{1},,,,,,,{4},,,{8},E1,
{4},{8},E8,
{4},{8},E7,{4},,,{8},E1,
{4},{8},E2,
{4},{8},E3,{4},,,{8},E7,
{4},{8},E6,
{4},{8},E5,{4},,,{8},E3,
{4},{8},E4,
{4},{8},E5,{4},,,{8},6h[1:1],
{4},,,{8},3,
{4},,,{8},3h[1:1],
{4},,,{8},6,
{4},,,{8},7h[1:1],
{4},,,{8},2,
{4},,,{8},2h[1:1],
{4},,,{8},7h[1:1],
{4},,,{8},C,
{4},{8},3/4,
{4},{8},C,{4},{8},5/6,
{4},{8},C,{4},{1}1h[8:3]/8h[8:9],
{4},,{8},C,{4},{8},6/4,
{4},{8},C,{4},{8},5/3,
{4},{8},8/2,{4},{8}1/7,
{4},{8}1/8,{4},{8},8h[4:1]/1h[2:1],
{4},,{8},C,{4},{8},6/5,
{4},{8},C,{4},{8},4/3,
{4},{8},C,{4},{1}8h[8:3]/1h[8:9],
{4},,{8},C,{4},{8},2/7,
{4},{8},C,{4},{8},4/5,
{4},{8},Ch[4:7],{1},{4},,,{8},E1f,
{1},,,{4},,,{8},E2,
{4},,,{8},E8,
{4},,,{8},E4,
{4},,,{8},E6,
{4},,,{8},3x/4x,
,3,
,3,{4},{8},5x/6x,,6,
,6,{4},{8},2x/4x,,3,
,3,{4},{8},5x/7x,,6,
,6,{4},{8},1h[4:1],{4},{8},2h[4:1],
{4},{8},3h[4:1],{4},{8},4h[4:1],
{4},{8},5h[4:1],{4},{8},6h[4:1],
{4},{8},7h[2:1],{4},{8},8x,
{4},{8},1b,,2,
,3,,4,,5,,6,
,7,{4},{8},8,,7,
,6,,5,,4,,3,
,2,{4},{8},1,,2,
,3,,4/5,,6,,7,
,8/1,{4},{8},8,,7,
,6,,5/4,,3,,2,
,1/8,{4},{8},4b/3h[2:1],{4},{8},4,
{4},{8},5/6h[2:1],{4},{8},5,
{4},{8},6/3h[2:1],{4},{8},6,
{4},{8},6-2[2:1],{4},,,{8},8/1h[2:1],
{4},,,{8},1/8h[2:1],
{4},,,{8},2-5[8:3],
{4},,,{8},7-4[8:3],
{4},,,{8},8b,
,8,
,7,,6,,5,,5,
,4,,3,,2v5[8:3],{4},,,{8},E8,
{4},{8},E7,
{4},{8},1,,1,
,2,,3,,4,,4,
,5,,6,,7v4[8:3],{4},,,{8},E2,
{4},{8},E3,
{4},{8},6/4,,4,
,4,{4},{8},3/5,,5,
,5,{4},{8},3,,4,
,5,,6,,7v4[2:1],{4},,,{8},2h[2:1]/1h[2:1],
{4},,,{8},3h[2:1]/4h[2:1],
{4},,,{8},5-8[2:1],
{4},,,{8},E1,
{4},{8},C,
{4},{8},7h[2:1],{4},,,{8},6h[2:1],
{4},,,{8},5h[2:3],
{4},{8},4,
{4},{8},3x,{4},{8},2x,
{4},{8},2h[2:1],{4},,,{8},3h[2:1],
{4},,,{8},4h[2:3],
{4},{8},5,
{4},{8},6x,{4},{8},7x,
{4},{8},1/2,,2,
,2,{4},{8},3/4,,3,
,3,{4},{8},5-2[8:3],{4},,,{8},4-7[8:3],
{4},,,{8},8/7,
,7,
,7,{4},{8},6/5,,6,
,6,{4},{8},4,,3,
,2,,1,,8,,7,
,6,,5,,4bh[1:4]/5bh[1:4],{1},,,,,,,{4},,,{8},C,
&inote_3=(170){4},{1},,,,{4},{8},5h[1:4],
{4},{8},C,
{1},{4},,,{8},C,
{1},{4},{8},4h[1:4],
{4},{8},C,
{1},{4},,,{8},C,
{1},{4},{8},6,
,6,
,5/7,{4},{8},5,,5,
,4/6,{4},{8},4,,4,
,3/5,{4},{8},2-5[2:1],{4},,,{8},3,
,3,
,4/2,{4},{8},4,,4,
,5/3,{4},{8},5,,5,
,6/4,{4},{8},7h[2:1]/3h[2:1],{4},,,{8},2,
,2,
,3,,3,,4h[4:1],{4},{8},3/5,
{4},{8},7,,7,
,6,,6,,5h[4:1],{4},{8},6/4,
{4},{8},1,,1,
,2,,2,,3-5[4:1],{4},{8},6,
{4},{8},8,,8,
,7,,7,,6-4[4:1],{4},{8},3h[4:1],
{4},{8},2h[4:3]/5h[2:1],{4},,,{8},7h[4:3]/4h[2:1],
{4},,,{8},3h[8:3],
{4},{8}6h[8:3],
{4},{8}2<6[4:3],{1},{8},3h[4:3]/8h[2:1],
{4},,,{8},6h[4:3]/1h[2:1],
{4},,,{8},2h[8:3],
{4},{8}7h[8:3],
{4},{8}3V57[4:3],{4},,{8},8h[4:1],
{4},{8},1h[2:1]/8h[4:3],{4},,,{8},2h[4:3]/7h[2:1],
{4},,,{8},6h[8:3],
{4},{8}5h[8:3],
{4},{8}4V28[4:3],{4},,{8},E7,
{4},{8},7h[4:3]/2h[2:1],{4},,,{8},1h[4:3]/8h[2:1],
{4},,,{8},1q4[4:5]/8p5[4:5],
{1},{4},,{8},C,
,6h[4:7],,3,
,3,,3,,2,,2,
,2,,2,,3h[4:7],,6,
,6,,6,,7,,7,
,7,,7,,6/4,,3,
,3/5,,6,,5/7,,4,
,4/2,,5,,3h[8:1],,3h[8:1],
,6h[8:1],,6h[8:1],,3-8[4:1],{4},{8},C,
{4},{8},7b/1b,,5/2,
,3,3,4,,6-2[4:1],,6,
,4h[4:1],{4},{8},3/5,,3/5,
,6,6,4,,8-5[16:3],{4},{8},4-1[16:3],
{4},{8},2/8,,4/7,
,6,6,5,,3-7[4:1],,3,
,5h[4:1],{4},{8},6/4,,6/4,
,3,3,5h[8:1],{4},{8},3h[4:1],
,6h[4:1],,C,,2b/7b,,2/7-4[4:1],
,7,,B3,,7/2,,7/2-5[4:1],
,2,,B6,,6/3,,6/3-8[4:1],
,3,,C,,1h[8:1]/7h[8:1],,2h[8:1]/8h[8:1],
,1>4[4:1],{4},{8},6h[8:1],,6h[8:1],
,5/7,,4/7,,3h[8:1],,3h[8:1],
,4/2,,5/2,,6h[2:3]/1h[2:3],{1},{4},,,{8},8b-4[4:1],
{4},{8},3,
{4},{8},1-5[4:1],{4},{8},6,
{4},{8},7-3[4:1],{4},{8},2,
{4},{8},2-6[4:1],,2,
,7,{4},{8},4h[4:1]/5h[4:1],{4},{8},3/6,
{4},{8},2/7v4[4:1],{4},{8},3,
{4},{8},7/2v5[4:1],{4},{8},6,
{4},{8},1h[2:1]/8h[4:1],{4},,{8},E1,
,2h[4:1]/7b<4[4:1],{4},{8},1,
{4},{8},7/2>5[4:1],{4},{8},8,
{4},{8},4/6<1[4:1],{4},{8},3,
{4},{8},5/3>8[4:1],{4},{8},6,
{4},{8},2/7h[8:3],{4},{8}8h[8:3],
{4},{8}1,,2h[8:3],{4},{8}1h[8:3],
{4},{8}8,,7h[8:1]/8h[8:1],{4},{8}8h[8:1]/1h[8:1],
{4},{8}1h[8:1]/2h[8:1],,3p6[2:1]/8q5[2:1],{4},,,{8},Cf,
{1},,,,,,,{4},,,{8},5h[4:7],
,2,
,2,{4},{8},3,,3,
,3,{4},{8},4h[4:7],,7,
,7,{4},{8},6,,6,
,6,{4},{8},6h[4:7],,1,
,1,{4},{8},3,,3,
,3,{4},{8},3h[4:7],,8,
,8,{4},{8},6V82[2:1],{4},,,{8},8,
,8,
,7,,7,,6,,6,
,5/7,{4},{8},1,,1,
,2,,2,,3,,3,
,4/2,{4},{8},8,,8,
,1,,1,,8,,8,
,2/7,{4},{8},1,,1,
,8,,8,,1,,1,
,7/2-4[8:1],{4},{8},5bh[2:1],{4},,,{8},4h[2:1]/6h[2:1],
{4},,,{8},2/3,
{4},{8}7/6,
{4},{8}1V35[2:1]/8V64[2:1],{1},{8},3h[2:1]/6h[2:1],
{4},,,{8},4h[2:1]/5h[2:1],
{4},,,{8},2/1,
{4},{8}7/8,
{4},{8}3/6p3[4:3],{4},,{8},2h[4:1],
{4},{8},4bh[2:1],{4},,,{8},5h[2:1]/3h[2:1],
{4},,,{8},7/6,
{4},{8}2/3,
{4},{8}8V24[2:1]/1V75[2:1],{1},{8},6h[2:1]/3h[2:1],
{4},,,{8},5h[2:1]/4h[2:1],
{4},,,{8},6<4[8:11]/3>5[8:11],
{1},{4},,{8},Cfh[4:1],
{1},,,,{8},2>5[2:1],
{4},,,{8},7<4[2:1],
{4},,,{8},1>4[2:1]/8<5[2:1],
{4},,,{8},3h[8:1],
,6h[8:1],
,5/4,4/5,3/6,,2h[4:7],,7,
,7,,7,,5,,5,
,6h[8:1],,6h[8:1],,7h[4:7],,2,
,2,,2,,4,,4,
,3h[8:1],,3h[8:1],,4/5,,4/5,
,3/6,,3/6,,2/7,,2/7,
,1/8,,1/8,,7/2h[4:1],7,7,
,2/7h[4:1],2,2,,1/8,1/8,1-5[4:1]/8-4[4:1],
{4},,{8},3bh[2:1],,5-8[16:3],
{4},{8},4,,6h[2:1],,4-1[16:3],
{4},{8},5,,3h[8:1]/6h[8:1],,3h[8:1]/6h[8:1],
,4/5,,4/5,,8v3[16:3],{4},{8},1v6[16:3],
{4},{8},7h[2:1],,2-5[16:3],
,2,,6,,2h[2:1],,7-4[16:3],
,7,,3,,6h[8:1]/2h[8:1],,2h[8:1]/6h[8:1],
,3h[8:1]/7h[8:1],,3h[8:1]/7h[8:1],,4,4,7,
,5,5,2,,3b/6bh[4:1],,3-7[16:3],
,5,,5,,6/3h[4:1],,6-2[16:3],
,4,,4,,3/8h[4:1],,2v5[16:3],
,2/7,,7h[16:3],{4},{16}7x,{8},{16}7x,
{8},7xv4[16:3],{4},{8},3h[16:3],{4},{8}3h[16:3],
{4},{8}2/4,,6h[16:3],{4},{8}6h[16:3],
{4},{8}7/5,,8-4[16:3],{4},{8},1-5[16:3],
{4},{8},7<2[2:1],{4},,,{8},1-4[4:1],
{4},{8},8-5[4:1],
{4},{8},2-5[4:1],{4},{8},7-4[4:1],
{4},{8},1h[4:7],{4},{8},8<2[1:1],
{1},{4},{8},6-1[4:1],
{4},{8},3-8[4:1],
{4},{8},5-8[4:1],{4},{8},4-1[4:1],
{4},{8},8h[4:7],{4},{8},1>7[1:1],
{1},{4},{8},7h[4:1]/1h[8:1],
{4},{8},2-5[4:1],
,2,,7-4[4:1],,7,
,1-4[4:1],,1,,8<5[4:1],,8,
,2>5[4:1],,2,,7h[8:1],,7h[8:1],
,7<4[4:1],{4},{8},2h[4:1],,6,
,7h[4:1],,3,,1h[4:1],,5,
,8h[4:1],,4,,E8/2q5[4:5],{1},{4},{8},7h[4:1],
{4},{8},3bh[2:1]/4bh[2:1],{4},,,{8},6h[2:1]/1h[2:1],
{4},,,{8},8-5[16:3],
{4},{8}7-3[4:1],
{4},{8}6-1<5[4:3],{4},,{8},2h[4:1],
{4},{8},6h[2:1]/5h[2:1],{4},,,{8},3h[2:1]/8h[2:1],
{4},,,{8},1-4[16:3],
{4},{8}2-6[4:1],
{4},{8}3-8>4[4:3],{4},{8},B5,
,B6,,B7,,3b/8bh[4:1],,3,
,2/7,2,2/7,,6/1h[4:1],,6,
,7/2,7,7/2,,4/8h[4:3],,4,
,3,,3,,5/1h[4:3],,5,
,6,,6,,4/7h[4:1],,3,
,2/6,2,2/6,,5/2h[4:1],,6,
,3/7h[8:3],{16},3x,{8},3x,4-8[16:3],{16},4,{4},{8}6-2[16:3],
{16},6,{4},{8}1-5[16:3],1,1,
,{16}6x<1[16:3],4x,6x,4x,{8}6x,,3<8[2:7],{1},,,,{4},{8}5h[8:3],
C,{1},{4},,,{8}4h[8:3],
C,
&inote_4=(170){4},{1},,,,{4},{24},8,
7,6h[1:4],{4},{16},,,{48},B1,
B2,B3,B4,{1},{4},,,{12},,{48}B1,
B2,B3,B4,{1},{4},{12},,{8}3h[1:4],
{4},{8},{48}B8,
B7,B6,B5,{1},{4},,,{12},,{48}B8,
B7,B6,B5,{1},{4},{12},,{8}6h[8:1],
,7h[8:1],
,8h[8:1],,7h[8:1],,4/6h[4:3],4,4h[8:1],
,2,2,2h[8:1],,3h[8:1],,2h[8:1],
,1h[8:1],,2h[8:1],,6/3h[4:3],6,6h[8:1],
,8,8,8h[8:1],,7h[8:1],,6h[8:1],
,5h[8:1],,4h[8:1],,3/6h[4:3],3,3h[8:1],
,2,2,2h[8:1],,7,7,7h[8:1],
,4,4,4h[8:1],,5,5,5h[8:1],
,2v5[8:1],{4},{8},7h[8:1],,3h[8:1],
,6,6,6,,2h[8:1],,6h[8:1],
,3,3,3,,6h[8:1],,7h[8:1],
,8,8,8,,3h[8:1],,2h[8:1],
,1,1,1,,3h[8:1],,4h[8:1],
,5,5,5,,6h[8:1],,5h[8:1],
,4,4,4,,2h[8:1],,6h[8:1],
,3h[8:1],,7h[8:1],,4w8[2:1],{4},,,{8},6h[2:1]/2h[2:1],
{4},,,{8},4h[2:1]/8h[2:1],
{4},,,{8},3h[8:3],
{4},{8}2h[8:3],
{4},{8}1h[4:3],{4},,{8},8v5[8:1],
{4},{8},4h[2:1]/6h[2:1],{4},,,{8},8h[2:1]/2h[2:1],
{4},,,{8},6h[8:3],
{4},{8}7h[8:3],
{4},{8}8h[4:3],{4},{8},1,
,2,,3,,5p3[2:1],{4},,,{8},4q6[2:1],
{4},,,{8},7h[4:1]/1h[4:1],
{4},{8}3h[4:1]/5h[4:1],
{4},{8}8h[2:1]/2qq5[4:3],{4},,{8},7h[4:1],
{4},{8},6q1[2:1],{4},,,{8},3p8[2:1],
{4},,,{8},2V48-3[4:5]/7V51-6[4:5],
{1},{4},,{8},C,
,5h[4:7],,2,
{16}2x,{8},{16}2x,{8},2x,{16},3,{8},{16}3,{8},{16}3,
{8},3,{16},3,{4},{8}4h[4:7],,7,
{16}7xh[16:1],{8},{16}7xh[16:1],{8},7xh[16:1],{16},6h[16:1],{8},{16}6h[16:1],{8},{16}6h[16:1],
{8},6h[16:1],{16},6h[16:1],{4},{8}3-5[16:3],{16},3,,6x,
{8},7-4[16:3],{16},7,,3x,{8},2-6[16:3],{16},2,,7x,
{8},8-3[16:3],{16},8,,1x,{8},2,2,2h[8:1],
,6,6,6h[8:1],,4h[16:1]/5h[16:1],4h[16:1]/5h[16:1],4h[16:1]/5h[16:1],
4h[16:1]/5h[16:1],4-7[8:1]/5-2[8:1],{4},{8},1b-5[16:3],,1,
,6,6,7h[8:1]/4h[8:1],,3/8,,2-5[16:3],
,1,1,1,,3h[8:1]/7h[8:1],,3h[8:1]/7h[8:1],
,6-4[8:1],,6,,2-5[16:3],6,2,
,7-4[16:3],3,7,,8b-4[16:3],,8,
,3,3,2h[8:1]/5h[8:1],,6/1,,7-4[16:3],
,8,8,8,,6h[8:1]/2h[8:1],,6h[8:1]/2h[8:1],
,3-5[8:1],,3,{4},{8},B8/B1,
,C/B7/B2,,B6/B5/B4/B3,,5b/2b,,{16}3,4,
,4,{8}3-5[8:1],,3,,4/7,,{16}6,5,
,5,{8}6-4[8:1],,6,,3/5,,{16}3,5,
,5,{8}3h[4:1],,5,,2x/7x,{16},2x/7x,{8},2x/7x,
7xh[8:1]/2xh[8:1],,C,,3b/5b,,{16}3V17[16:5],5,
,5,{8}3,,B5,,6/4,,{16}6V82[16:5],4,
,4,{8}6,,B4,,4q7p1[8:9]/5p2q8[8:9],{1},{4},{8},Ch[4:1],
{4},{8},1bh[2:1],{4},{8},8<6[8:1],
{16},2,{8},2,1>3[8:1],{16},7,{8},7,
1-3[8:1]/8-6[8:1],{4},{8},5h[2:1],4,4,
,4h[2:1],5,5,,6-2[16:3],{4},{8},3-7[16:3],
{4},{8},1h[4:1]/8h[4:1],{4},{8},2-5[6:1],
{16},8,{8},8,7-4[6:1],{16},1,{8},1,
6h[4:1]/3h[4:1],{4},{8},2q5[2:1],{4},{8},7h[4:1],
{4},{8},4x,,B8,
,E7,,B5,,Cf,{4},{8},1-5[8:1],
{16}7h[16:1],{8},{16}7h[16:1],{8},8-4[8:1],{16}2h[16:1],{8},{16}2h[16:1],
{8},2v5[8:1],{4},{8},4/6h[4:1],3,2,
,5/3h[4:1],6,7,,1-5[8:1],6,1,
,8-4[8:1],3,8,,3h[4:1]/6h[4:1],{4},{8}2h[4:1]/7h[4:1],
{4},{8}B1/B8/E1,,2h[4:1]/7h[4:1],{4},{8}3h[4:1]/6h[4:1],
{4},{8}B4/B5/E5,,4/6h[4:1],3,2,
6/2h[4:1],7,8,1h[8:1]/8h[8:1],,7qq4[4:3]/2pp5[4:3],{4},,,{8},E5f,
{1},,,{4},,,{8},7>7[4:15],
{4},{8},C,
{1},{4},,,{8},C,
{1},{4},{8},3h[4:7],
,5,
{4},{8},5,{4},{8},5,
{4},{8},5,,6h[4:7],,4,
{4},{8},4,{4},{8},4,
{4},{8},4,,3h[4:7],,4,
{4},{8}5,4,,5,,4,
{4},{8}5,4,,6h[4:7],,5,
{4},{8}4,5,,4h[16:3],{4},{8}3h[16:3],
{4},{8}2,,1>1[2:3],,1,
,Ch[4:1],{4},,{8},E3,
{4},{8},E7,,8<8[2:3],,8,
,Ch[4:1],{4},,{8},E7,
{4},{8},E3,,1-3-5-7-1[2:3],,1,
,Ch[4:1],{4},,{8},5,
{4},{8},7,,8-6-4-2-8[2:3],,8,
,Ch[4:1],{4},,{8},4,
,3-7[8:1],{4},{8},8b/6h[4:1],{4},{8},1,
2,3,4,6/5h[4:1],{4},{8},7/4,
{16},3/6,{8},2/5,4h[4:1]/1-6[6:1],{4},{8}5-2[6:1],
{4},{8}7-3>1-5[4:3],{4},,{8},4h[4:1],
{4},{8},6/3h[4:1],{4},{8},8,
7,6,5,3/4h[4:1],{4},{8},2/5,
{16},6/3,{8},7/4,5h[4:1]/8v3[6:1],{4},{8}4v7[6:1],
{4},{8}2qq6[4:3],{4},{8},5h[8:1],
,7h[8:1],,8h[8:1],,5/7b-3-5[2:1],{4},{8},1,
{16},2,{8},3,4/2-6-4[2:1],{4},{8},8,
{16},7,{8},6,5/3h[4:1],{4}7,
{8}4/6h[4:1],2,,1h[2:1]/8qq4[12:11],{4},,{8},2-4[8:1],
{4},{8},5V71[2:1],{4},{8},1,
{16},2,{8},3,4V28[2:1],{4},{8},8,
{16},7,{8},6,1h[2:3]/5h[4:7],{1},{4},,{8},1b>1V35V71[4:27],
,Cf,{1},,,,,{4},,,{8},Ch[1:1],
{1},{8}2x,
3,
{16}5,4,5-7[8:1],4,{4}5,{8},1/8,,2h[2:3],
{16}5h[16:1],{8},{16}6h[16:1],{8},5h[16:1],{16},6h[16:1],{8},{16}5h[16:1],{8},{16}6h[16:1],
{8},7h[16:1],{16},8h[16:1],{8},1,8/1,,7h[2:3],
{16}4h[16:1],{8},{16}3h[16:1],{8},4h[16:1],{16},3h[16:1],{8},{16}4h[16:1],{8},{16}3h[16:1],
{8},2h[16:1],{16},1h[16:1],{8},8,6-3[12:1],{16}4,6,,2h[16:1],
{8},2-7[12:1],{16}8,2,,6h[16:1],{8},7-4[12:1],{16}1,7,,3h[16:1],
{8},2-5[12:1],{16}8,2,,6h[16:1],{8},4h[16:1],5h[16:1],3h[16:1],
6h[16:1],2h[16:1],7h[16:1],1h[16:1],8h[16:1],{16}2x,7x,2x,7x,2x,7x,
2x,7x,{8}2w6[8:1],{4},{8},1b/8b,{16},2-5[8:1],{8},2,
6-1[8:1],,6,,7/2,{16},7-4[8:1],{8},7,
3-8[8:1],,3,,2/7,{16},1-5[8:1],{8},1,
7-3[8:1],,7,,1/4h[8:1],2,5/3h[8:1],
,7/4h[8:1],6,3/5h[8:1],,4x/6x<1[8:1],{16},6,{8},3,
2-6[8:1],,2,,5x/3x>8[8:1],{16},3,{8},6,
7-3[8:1],,7,,4x/1x>4[8:1],{16},1,{8},5,
6-2[8:1],,6,,1h[4:1],{16}8x,7x,{8}6x,
,8h[4:1],{16}1x,2x,{8}3x,,7b/4h[16:3],,8-5[8:1],
2,8-3[8:1],,8,,2/5h[16:3],,1-4[8:1],
7,1-6[8:1],,1,,7/2,{16},1,{8}8<5[8:1],
1,8>3[8:1],,8,{16},4x,{8},{16}3x/5x,{8},{16}2x/6x,
{8},1<7[16:3],{4},{8},6h[16:3],{4},{8}4h[16:3]/5h[16:3],
{4},{8}3/6,6,2h[16:3],{4},{8}8h[16:3]/1h[16:3],
{4},{8}7/2,2,6p2[8:1],{4},{8},3q7[8:1],
{4},{8},1>8[2:1]*<2[2:1],{4},,,{8},8b/1h[4:1],
,7,
7,6/1h[4:1],,5,5,4/1h[4:1],,5,
5,6/1h[4:1],,7,7,2h[4:7]/8h[8:3],{4},{8},8<3[1:1],
{1},{4},{8},1/8h[4:1],
,2,
2,3/8h[4:1],,4,4,5/8h[4:1],,4,
4,3/8h[4:1],,2,2,7h[4:7]/1h[8:3],{4},{8},1<8<7<6>5>4>3>2[1:1],
{1},{4},{8},1-5[8:1]/8-4[8:1],
{4},{8},3/6h[4:1],
,3,3,2/6h[4:1],,2,
2,1/6h[4:1],,2,2,6/3h[4:1],,6,
6,7/3h[4:1],,7,7,8/3h[4:1],,8,
,3h[4:1]/8-4[8:1],{4},{8},5h[2:1],{16}B1,B2,{8},4x,
4h[2:1],{16}B8,B7,{8},6x,6h[2:1],{16}E2,E3,{8},3x,
3h[2:1],{16}E8,E7,{8},8x,8>7[16:19]*<1[16:19],{1},{4},{8},B8,
C,B4,,6bh[2:1]/2bh[2:1],{4},,,{8},4h[16:7]/8h[2:1],
{4},,,{8},3h[8:3],
{4},{8}2h[4:1],
{4},{8}1xh[1:1]/8xV24[8:3],{4},,{8},5h[4:1],
{4},{8},3h[2:1]/7h[2:1],{4},,,{8},1h[2:1]/5h[2:1],
{4},,,{8},6h[8:3],
{4},{8}7h[4:1],
{4},{8}8h[8:3]/1V35[8:3],{4},{8},7,
,6,,5,,6h[8:1]/2b-5[8:1],,6h[8:1],
,7h[8:1]/2-5[8:1],,7h[8:1],,3h[8:1]/7-4[8:1],,3h[8:1],
,2h[8:1]/7-4[8:1],,2h[8:1],,6h[8:1]/1-5[8:1],,6h[8:1],
,7h[8:1]/1-5[8:1],,7h[8:1],,3h[8:1]/8-4[8:1],,3h[8:1],
,2h[8:1]/8-4[8:1],,2h[8:1],,7h[8:1]/2>5[8:1],,7h[8:1],
,8h[8:1]/1-5[8:1],,8h[8:1],,2h[8:1]/7<4[8:1],,2h[8:1],
,8/1h[4:1],{4},{8},2/6,{16},2/6,{8},2h[16:1]/6h[16:1],
3/7,{16},3/7,{8},3h[16:1]/7h[16:1],6,5,4,
3,{16}7-3[8:1],2,8,1,{8}7,,1b>1[4:31]*>5[8:31],
&inote_5=(170){4},{1},,,,{4},{24},1,
2,3<3[1:2],{4},{16},,,{48},{8}Ch[4:1],
{1},{4},{8},3<3[4:7],
{4},{8},Ch[4:1],
{1},{4},{8},6>6[1:2],
{4},{8},Ch[4:1],
{1},{4},{8},6>6[4:7],
{4},{8},Ch[4:1],
{1},{4},{8},2,
5,3,
2,A1,8,7,6,4,5,1,
8,7,2,6,3,7,4,6,
7,A8,1,2,3,4,6,7,
3,8,1,7,2,5,3,7,
8,A2,3,4,5,2,1,8,
7,1,6,2,5,4,6,7,
8,A4,3,2,6,1,7,5,
4,8,2,4,5,3/6,5,2,
1h[48:1],A7,8,2h[48:1],3,5,4,3,
2,8,6,1,5,3/6,4,7,
8h[48:1],A2,1,7h[48:1],6,4,5,6,
7,1,2,7,3,6/4,5,3,
2h[48:1],A6,1,7h[48:1],5,8,4,3,
2,1,6,7,4,3/5,6,7,
8h[48:1],A3,2,1h[48:1],6,5,4,3,
2,8z4[8:1]*s4[8:1],6,8,,3b>8[8:1],{4},{8},5,
6,1,2,6b<1[8:1],{4},{8},2h[8:1],
{16},3h[8:1],{8},4h[8:1],5b-2[8:1],,6,
{4}7b-4[8:1],{8}8,1b>2>3<5<6<7[4:3],{4},,{8},1h[4:1],
{4},{8},8b<5[8:1],{4},{8},4h[8:1],
{16},3h[8:1],{8},2h[8:1],1b>4[8:1],{4},{8},5h[8:1],
{16},6h[8:1],{8},7h[8:1],8b-5[8:1],,1,
{4}2b-7[8:1],{8}3,4b<5<6<8>1>2[4:3],{4},{8},8h[8:1],
,6h[8:1],,4h[8:1],,3/5bV31V72[8:5],{4},{8},5h[8:1],
{16},6h[8:1],{8},8,7/1bV75V36[8:5],{4},{8},1h[8:1],
{16},2h[8:1],{8},4,3bv6[8:1],7,3,
7bv2[8:1],3,7,4b-8-2[8:7],{4},,{8},4b-6[8:1],
{4},{8},7h[4:1]/3bV14-8[8:5],{4},{8},6,
6,5,5,2h[4:1]/6bV47-3[8:5],{4},{8},2h[8:1],
{16},1h[8:1],{8},8,8bh[4:7]/4bh[4:7],{1},{4},,{16},,{32},1/5,
2/6,3/7,{8},6x/2xh[8:15],,B8,
{16}B2,B3,,B7,{8}B6,{16}E3,E4,,E7,{8}E6,{16}A1,E2,,A8,
{8}E8,{16}A3,D4,,A6,{8}D6,C,3x/7xh[8:15],,B1,
{16}B7,B6,,B2,{8}B3,{16}E7,E6,,E3,{8}E4,{16}A8,E8,,A1,
{8}E2,{16}A6,D6,,A3,{8}D4,C,3h[16:1]/6h[16:1],{16}5,4,,5,
{8}4,2h[16:1]/7h[16:1],{16}4,5,,4,{8}5,8h[16:1]/1h[16:1],{16}6,3,,6,
{8}3,2h[16:1]/7h[16:1],{16}3,6,,3,{8}6,{16}2h[16:1],8h[16:1],2h[16:1],8h[16:1],3h[16:1],7h[16:1],
3h[16:1],7h[16:1],4h[16:1],6h[16:1],4h[16:1],6h[16:1],5,5,5,5,{32}E6,E7,E8,E1,E2,E3,E4,E5,B5,B6,B7,B8,
B1,B2,B3,B4,{8}Ch[4:1],{4},{8},{32}7/8bV24[8:1],1V35[8:1],2-4-6[8:1],3xh[32:5],{8},8,
,2-7[8:1],{16}7-3[8:1],7,,6,{8}6,5<8[8:1],{24}2,3,4,5,{12},{24}1x,
2x,3x,4xh[8:1]/6h[16:3],{16},,,{48},{8}3/7,3/7,{32}2/1V75[8:1],8V64[8:1],7-5-3[8:1],6xh[32:5],{8},1,
,7v2[8:1],{16}2-8[32:3],2,,4,{8}4,3v1[8:1]/7v5[8:1],2/6,3/7,
,6v8[8:1]/2v4[8:1],7/3,6/2,,{32}7b<6-4>3[8:1],6>5-3>2[8:1],5>4-2<1[8:1],4xh[32:5],{8},7x,
,4-8[8:1],{16}8-5[8:1],8,,2,{8}2,4>1[8:1],{24}7,6,5,4,{12},{24}8x,
7x,6x,5xh[8:1]/3h[16:3],{16},,,{48},{8}2/6,2/6,{32}2b>3-5<6[8:1],3<4-6<7[8:1],4<5-7>8[8:1],5xh[32:5],{8},2x,
,4v1[8:1],{16}1V35[8:1],1,,8,{8}8h[16:1],{4},{8}7h[4:1]/B6/E6/B5,
,3h[4:1],,B1/B2/E2f,,6/5b>2[32:3],6,{16}5,7,
,7,{8}1>4[32:3],8,1,,6/5>4-2[32:3],6,{16}5,7,
,7,{8}1>2-4[32:3],8,{16}1,8,7,6,{8}3/4x<7[32:3],3,{16}4,2,
,2,{8}8<5[32:3],1,8,,3/4<5-7[32:3],{16}4,4,,2,
{8}2,8z4[32:5],{4},{8},3bV17[32:5],{16}4,3,{8},{16}4x,
5x,{8}6bxV82[32:5],{16}5,6,{8},{16}5x,4x,{8}3bx>8[32:5],{16}1,3,{8},{16}8x,
7x,{8}6bx<1[32:5],{16}8,6,{8},{16}2x,3x,{8}4bxw8[16:19],{1},{4},{8},E8/B7/B6/E6/B8/B1/B2/B3/B4/B5/Ch[4:1],
{4},{8},{32}1b,2/E8,3/E7,4/E6,{4}5h[8:3],
{8},6x,{16}8,7/1h[8:1],,8,{8}1/7h[8:1],2,{16}2,3/1h[8:1],,2,
{8}1/3h[8:1],4x,{16}4,5/3h[16:1],{8},5/3-1[8:1],5-7[8:1],{4}4-8[8:1],
{8},6xh[4:1],{16}B7,B6,B5,B4,B3,B2,{8}1/8h[8:1],{16},7/2h[8:1],{8},8z4[4:1]/1-7-3-5[4:1],
7x/2x,{4}8/1,{8}E5,{32}6b,7,8,1,{4}2h[8:3],
{8},5x,{16}5,4/6h[8:1],,5,{8}6/4h[8:1],7,{16}7,6/8h[8:1],,7,
{8}8/6h[8:1],{16}1xp3[8:1],8,{8}2,1x,,2-8-3-7-5[16:5]/4-7[8:1],{4},{8},8-4[8:1],
{16}4,3,2,1,8,7,{8}6,,{32}B6/B2,B7/B3,{16}B8/B4,
{8},{32}E4/E8,E3/E7,{16}E2/E6,{8},Cf,,{32}5b,6/E4,7/E3,8/E2,{4}1h[8:3],
{8},2x,{16}3-5[32:3],4,,4,{8}3/6,7,{16}6-4[32:3],5,,5,
{8}6/3,2x,{16}3,5,{8}3,8-6[8:1],2-4[8:1],{4}1-5[8:1],
{8},3xh[4:1],{16}E2,E3,E4,E5,E6,E7,{8}8h[4:1]/1h[4:1],{4},{16},8-2-6-4[4:1]/1s5[4:1],
{8}1xh[8:1]/8xh[8:1],{4},{8}E5,2xh[4:1],{4},{8}1h[4:1]/3h[4:1],
{4},{8}4h[8:1]/8h[8:1],,6h[4:1],{4},{8}5h[4:1]/7h[4:1],
{4},{8}4h[8:1]/8h[8:1],,3/1h[4:1],4,5,
6/8h[4:1],5,4,3/7h[8:1],2,1,8,{24}7,,6,
,5,,{16}4,3,2w6[0.5294##0.1765],1,{24}8,7,6,5,4,3,2b<2[4:29],{1},,,{4},,,{16},,,{48},{8}E5,
{4},{8},Ch[4:1],
{1},{4},,,{8},Ch[4:1],
{1},{4},{8},7h[4:7],
{16},B7,{8}E7,
{16}E2,{8},{16}B7,{8}E7,E2,,E6,{16},B3,{8}E3,
{16}E6,{8},{16}B3,{8}E3,C,,2h[4:7],{16},E2,{8}B2,
{16}E7,{8},{16}E2,{8}B2,E7,,E3,{16},E6,{8}B6,
{16}E3,{8},{16}E6,{8}B6,C,,8h[4:7],{16},B4,{8}E4,
{16}B6,{8},{16}B4,{8}E4,B6,,B2,{16},B8,{8}E8,
{16}B2,{8},{16}B8,{8}E8,C,,1h[4:7],{16},E6,{8}E5,
{16}E8,{8},{16}E6,{8}E5,E8,{16}E6,E5,{8}E4,{16},B2,{8},{16}E1,
{8},{16}B7,{8},C,,6<1<6[2:3],{4},{8}E4,
Ch[4:1],{4},{8},B7,{16},B1,{8},{16}B5,
{8},{16}B3,{8},5,4,3>8>3[2:3],{4},{8}E6,
Ch[4:1],{4},{8},B2,{16},B8,{8},{16}B4,
{8},{16}B6,{8},4,5,6pp8<5[2:3],{4},{8}E3,
Ch[4:1],{4},{8},E5,{16},E3,{8},{16}E7,
{8},{16}E1,{8},1,2,3qq1>4[2:3],{4},{8}E7,
Ch[4:1],{4},{8},E5,{16},E7,{8},{16}E3,
{8},{16}E1,{8},Cf,,{32}8b/3h[4:1],7,{16}6-1-7-5[16:7],{4},{8},4,
3,2,1,{32}1/6h[4:1],2,{16}3-8>2-4[16:7],{4},{8},5h[8:1],
{16},6h[8:1],{8},7,{32}8x-3-1[8:1],E1,B1,B2,{4},{32}7x-4-6[8:1],
E7,B6,B5,{4},{32}3x-1-7<5>3[8:5]*-1[32:5],B3,C,B7,{4},,{8},7xh[4:1],
{4},{8},{32}1b/5h[4:1],8,{16}7p1[16:7],{4},{8},6h[8:1],
{16},7h[8:1],{8},8,{32}8/4h[4:1],1,{16}2-5-8[16:7],{4},{8},3h[8:1],
{16},2h[8:1],{8},1,{32}2x-5-3[8:1],E3,B3,B4,{4},{32}1x-6-8[8:1],
E1,B8,B7,{4},{32}5x-3>1<7-5[8:5]*-3[32:5],B5,C,B1,{4},{8},5h[8:1],
,3h[8:1],,1h[8:1],,{32}7b-3-1-5[2:1],6,5,4h[32:13],{4},{8},B2,
{4},{8},{32}2-6-8-4[2:1],3,4,5h[32:13],{4},{8},B7,
{4},{8},{32}5x/3x,6/2,{16}7h[16:3]/1h[16:3],{4},{32}8x,
7/1,6/2,5h[32:5]/3h[32:5],{4},{32}4x,5/3,6/2,7/1,{2}8h[8:7],
{8},4h[4:1],{4},{8},{32}8bv3>1-7[2:1],7,6,5h[32:13],{4},{8},E3,
{4},{8},{32}1v6-8>2[2:1],2,3,4h[32:13],{4},{8},E7,
{4},{8},{32}5/1,4/8,3/7,6h[32:53]/2h[32:53],{1},{4},,,{8},{64}E8/E1/E2/E3/E5/E7/B6/B3/B7/B2,
Cf,{1},,,{4},,,{16},,,{32},{8}6h[1:1],
{16},B2,{4},{8}E4,
{16},B1,,B7,{8},3h[1:1],{16},B6,{4},{8}E5,
{16},B8,,E2,{8},6h[1:1],{16},E4,{4},{8}B6,
{16},E3,,B1,{8},2-5[32:3],7-4[32:3],2,
{16}7,3,6w2[8:1],3,{4}6,{8},4h[4:1],,5,
{16}4,3,,4,{8}5,{16}4,3,,4,{8}6,{16}4,2,,4,
{8}7,{16}4,1,,4,{8}7,{24}8,7,6,5h[4:1],{16},,,{48},{8}4,
{16}5,6,,5,{8}4,{16}5,6,,5,{8}3,{16}5,7,,5,
{8}2,{16}5,8,,5,{8}2,{24}1,2,3,4/5-7[16:1],{12},{16}4-2[16:1],5,,4,
{8},8/1-3[16:1],{16}8-6[16:1],1,,8,{8},4/5<7[16:1],{16}4>2[16:1],5,,4,
{8},8/1>3[16:1],{16}8<6[32:1],1,,8,{8},{16}4,5,4,5,3,6,
3,6,2,7,2,7,1,8,1,8,{32}1,2,3,4,5,6,7,8,1,2,3,4,
5,6,7,8,{8}1xz5[8:1]*s5[8:1],5x,1,,{32}7b/2h[8:1],6,{16}5,,3,{8}5-7[8:1],
4,5b-8[8:1]*-1[8:1],{24}2,3,4,5b,{16},,,{48},{32}2b/7h[8:1],3,{16}4,,6,{8}4-2[8:1],
5,4b-1[8:1]*-8[8:1],{24}7,6,5,4b,{16},,,{48},{32}7b/2h[8:1],6,{16}5,,3,{8}5v2[8:1]*-3[8:1],
4,5b-7[8:1]*v8[8:1],,5b,,1xv3[8:1]*v7b[8:1],{4}3-5b[16:1]/7-5[16:1],
{8},8xv6[8:1]*v2b[8:1],{4}6-4b[16:1]/2-4[16:1],{8},{32}7bx,6,{16}5,,2,{8}3-1[8:1]*-8[8:1],
4,3b-7-1[6:1],,3b,,{32}2bx,3,{16}4,,7,{8}6-8[8:1]*-1[8:1],
5,6b-2-8[6:1],,6b,,{32}3bx,4,{16}5,,6,{8}4>2[8:1]*-1[8:1],
7,4b<6[8:1]*-7[8:1],,4b,,1bxh[8:1],{16}7,5,6,4,
{8}5,8bxh[8:1],{16}2,4,3,5,4,6,{32}5b/7h[8:1],4,{16}3,,2,{8}4-7[8:1],
1,2/4b-1b[8:1],3,4b/6,5,{32}4b/2h[8:1],5,{16}6,,7,{8}5-2[8:1],
8,7/5b-8b[8:1],6,5b/3,4,{32}7b/2h[8:1],6,{16}5,,5,{8}4>1[8:1],
7,6/4b<7[8:1],5,4b/2,{16},8h[16:3],{8},{16}4h[16:3],{8},{16}2h[16:3],
{8},6b>3[8:1],{4},{8},2bh[8:1]/5h[8:1],{16},2h[8:1]/3h[8:1],{8},{16}2bh[8:1]/4h[8:1],
{8},{16}2h[8:1]/6h[8:1],{8},2bh[16:1]/7h[16:1],2h[16:1]/8h[16:1],7bh[8:1]/3h[8:1],{16},7h[8:1]/5h[8:1],{8},{16}7bh[8:1]/4h[8:1],
{8},{16}7h[8:1]/2h[8:1],{8},7bh[16:1]/8h[16:1],7h[16:1]/1h[16:1],2bh[2:1],{16}1,8,,8,
7,6,{8}5bh[2:1],{16}8,1,,1,2,3,{8}4-6-2-8[8:5],{4},,,{8},1h[4:1]/7-5[12:1],
,7,
2,1h[4:1]/7-5[12:1],,7,8,1h[4:1]/6-4[12:1],,6,
2,1h[4:1]/6-4[12:1],,6,{16}2,3,{8}4h[4:7],{16},6h[16:1],{8},{16}7,
{8},{16}6h[16:1],{8},7,6,B6,{16},B8,{8}B1,
{16}B6,{8},{16}B1,{8}B2,B7,,6h[4:1]/2-4[12:1],,2,
7,6h[4:1]/2-4[12:1],,2,5,6h[4:1]/3-5[12:1],,3,
7,6h[4:1]/3-5[12:1],,3,{16}6,7,{8}8h[4:7],{16},2h[16:1],{8},{16}3,
{8},{16}2h[16:1],{8},3,2,B2,{16},B4,{8}B5,
{16}B2,{8},{16}B5,{8}B6,B3,,4-7[8:1]/5-2[8:1],4/5,5/4,
,1h[4:1]/8-6[12:1],,8,1,8h[4:1]/1-3[12:1],,1,
8,1h[4:1]/7-5[12:1],,7,{16}2,3,{8}4h[4:1]/6-8[12:1],,6,
5,4h[4:1]/1-7[12:1],,1,{16}4,3,{8}2h[4:1],{16}7,6,{8}5h[4:1],
{16}2,1,{8}8p3[8:1]*q5[8:1],{4},{8},2/6<8[12:1],{16}2h[16:1],{8},{16}3h[16:1],
{8},4>2[12:1],{16}7h[16:1],{8},{16}6h[16:1],{8},5-7>8[12:1],{16}1,1,,3,
{8}3,4>3-1[12:1],{16}7,7,,5,{8}5,2xh[4:5]/4v2>1[4:5],{1},{4},{8},B2,
C,{32}E6/B6,E5,E4,E3,E1,E8,{16}E7,{8}4bx/6xh[2:1],{4},{8},7,
8,1,2,5b/3h[2:1],{4},{8},2h[8:1],
{16},1h[8:1],{8},8,7b-5[8:1],,7,
{4}8-6[8:1],{8}8,1-7-5-3[4:3],{4},{16}1x,1x,,1x,
{8}1x,2h[16:1],{16},2x,{8},2x,4b/6h[2:1],{4},{8},3,
2,8,7,5b/3h[2:1],{4},{8},6h[8:1],
{16},7h[8:1],{8},1,2b-4[8:1],,2,
{4}1-3[8:1],{8}1,8-2-4-6[4:3],{4},{16}7x,7x,{8}6xh[16:1],
6x,8h[8:1],,7h[8:1],,5bh[8:1]/8h[8:3],,5h[8:1],
,5h[8:1]/6h[8:1],{16},7h[8:1],{8}5h[8:1],8,4bh[8:1]/1h[8:3],,4h[8:1],
,4h[8:1]/3h[8:1],{16},2h[8:1],{8}4h[8:1],1,3b-7-1[6:1],8,3,
6-2-4[6:1],3,6,1-3-7-5[8:7]*-3-7-5[8:7],,1,,4,
,2x-5[8:1],,2,,4bh[8:1]/6h[8:3],,4h[8:1],
,7h[8:1],{16}3,6,4,6,{8}1,5bh[8:1]/3h[8:3],,5h[8:1],
,7xh[48:1]/1xh[48:1],{16},3/5,{8},4/8,2b-5[16:1]/6b-1[16:1],{16},2/6,{8},{16}8/4,
8/4,{8}4bv1[16:1]/8bv5[16:1],{16},4/8,{8},{16}2/6,2/6,{8}2b/6b,3/7,4/8,
5/1,{16}5-3v6[32:5]/1-7v2b[32:5],8/4,7/3,6/2,{8}1/5b,,{64}Cf/B2/B4/B5/B6/B8/B1/5x<1[4:15],1x>1[64:495],{1},,,,{4},{16},{32},{8}E3,
{4},{8}E3,{1},{2},{8}E3,
{4},{8}E3,
