&title=【电棍】熙熙攘攘、我们的城市
&artist=トゲナシトゲアリ / D_dsa
&first=0.04
&des=D_dls
&lv_5=14
&inote_5=(171)
{1},
{1},
{16}2bx,3,4,5bx,6,7bx,8,
{24}1bx,5x,1x,5x,1x,5x,1x,5x,1x,5x,1x,5x,1x,5x,1x,5x,1x,5x,1x,5x,1x,5x,1x,5x,1x,5x,1x,5x,1x,5x,1x,5x,1x,5x,1x,5x,1x,5x,1x,5x,1x,5x,1x,5x,1x,5x,1x,5x,
{16}2hx[16:3],,,3h[16:3],,,4h[16:3],,,5h[16:3],,,6,,8,,1h[16:3],,,7h[16:3],,,5h[16:3],,,
{16}3h[16:3],,,2,,1,,8/6,,4,1h[8:1],,6,1h[8:1],,8,1h[8:1],,3/7,3/7,,,,1/5,,1,4h[8:1],,2,4h[8:1],,3,
{16}4,,,1v6[8:1]/3v6[8:1],,2,,1>1[2:1]/3>3[2:1],,,,,,,,,,,,,,,,1h[16:19],,,,,,,,,
{8},,,,,8,2/6,3/5,8w4[8:1],,
{16}8,Cf,,2,7,3,6,4,5,3,4,2,1,3,8,4,7,5,6,4,5,4,6,4,7,4,8,3,7,3,6,3,5,3,4,2,5,1,6,2,7,3,8,4,8,3,7,2,6,1,5,
{16}2,3,4,6,7,8,2/1,3,4,7,6,5,2,1,8,7h[4:1]/6bv4[16:7],,,,,,,,,,
{16},3<1[8:5],,3,,,,,,,,3,,4,,5-8[8:3]*-3v2-8[8:3],,,,5,,,,,,,,8x,,8x,1x,,
{16}1x,7,2,6,3,7,1b<4[2:1],,,2b,,,3,,2,,1,,8pp3[2:1],,,,,,,,,5,,6,,7p2[4:1],
{16},,2,,,1,,8,,4/7,,1/2,,7,8,,,3/5,,2/7,,,,1/5-1[8:1]*-1[8:1],,,,5pp5[4:1]*qq5[4:1],,,,,
{16},,,,,,,7h[2:1],,,,6pp7[16:11],,5qq3[16:9],,4,,,,,,,,,,,,,,3,7,2,
{16}6,1-5b[8:1],5-1b[16:3],8,4,1,,,,,,2/Cf,,3,,4/7,,5,,3pp5[4:1]/6,,,,5v8[4:1],,,,8,,7,,6>3[4:1],
{16},,,2,,2xq7[4:1],,,,1xp5>4[8:5],,8xq4<5[2:1],,,,,,,,,,,,,,,,3/6,,7,7h[8:1],,
{16}5,5h[8:1],,4,4h[8:1],,2,2q6b[6:1]v1[6:1],,3,,1x/2,,8x,,7x,,6x,,5x,5x>2[8:1],,8hx[16:3],,,,,1x/8,,7,7h[8:1],,
{16}3,3h[8:1],,6,6h[8:1],,4,4h[8:1],,5h[8:5],,2x,,1x,,8x,,7x,,8x,1x,2x,3x,4x/8b-4[8:1],,7,,6/8,,7,7,,
{16}2,2,,,4/5,,2,,1/3,1/3,,8/6,8/6,,,,5pp1[2:1],,4,,3,3h[16:1],,2,2,,,,,4,,5,,6,,7b/1b,,3b/4b,,2b/8b,,5b/6b,,
{32}1b,2,3,4,5,6,7,8,
{16}1hb[2:1],,5b,,6b,,7b,,8,1,,8-3[8:1]*-5[8:1],,1/7,,Cf/B8/B1/B7/E1/E8,,,,,,,1,,8,2,,1-4[8:1]*-6[8:1],,2/8,,Cf/B8/B1/B2/E1/E2,,
{16},,,,,3/7-4[8:1],,6,,7/2q6[8:1],,1,,2/8-5[8:1],,7,,8/3-8[8:1],,2,,3/6-1[8:1],,5,,6/3,3>8[4:1],,,8,,7,
{16},6pp1[2:1],,,,1,,2,,3,,4,,,,4,6,4,8,4-1[8:1],6,4-7[8:1],8,4x-8[8:1],,4x,,4x,,,,5,
{16}3,5,1,6b-8[8:1],3,6-3b[8:1],1,6x-1b[8:1],,6x,,6x,,,,2hx[4:1],,,,8b>8[2:1],,8b,,Cf,,,,8b>8[2:1],,8b,,Cf,
{16},,,8b,,8b,,1,2,3,4,8-5[8:1]*-3[8:1],,2/7,,8,,,,,,4/5,,2/7,2/7,,,1s5[8:1]/8z4[8:1],,3/6,,
{8}A1/A8/D1f/B1/B8/E1,,,7-4[8:1],7,7/1-5[8:1],1,1/8-4[8:1],7x,8/2-5[8:1],3x,2/7-3[8:1],6x,
{16}7/1>4[4:1],1,,,4,,5,,6,,,,3v2[8:1]/7v6[8:1],,2>5[8:1]/6<1[8:1],,,,,,,,8x,7x,1x,2x,7-3[8:1],6,2-5[8:1],3,7-1[8:1],,2x,,7x,,,,2x,
{16}3x,7x,6x,3>1[8:1],4,6-2[8:1],5,3x-7[8:1],,6x,,3x,,,,1p8[8:3]/8,,,,8,,8<1[2:1],,,,,,1,,1<1b[2:1],,,
{16},,,1bx,,1bx,,,,8,,7,,6,,4,,4,6,,6,1,,8/7,,7/6,,6/5pp7[8:1],,4,,5xqq3[8:1],
{16},,5x-1[16:1],,,5x,,,,4,,3,,2,,7h[16:3],,,5h[8:1],,6,5,,3,4,,,4v1[8:1]*v7[8:1],,3/5,,4,
{16},,2/6,,,3/5,,,,7-3[8:1],,3,,1-4[8:1]*-6[8:1]/7,,1,,1x,,,3x/7x,,,6-1[8:1],6,,4-1[8:1],4,,,,7,
{16},6,1h[8:1],,5,1h[8:1],,4,1,,,8v3[8:1]/6v3[8:1],,7,,8<8[2:1]/6<6[2:1],,,,,,,,,,,,,,,,8hb[1:1],
{16},,,,,,,4h[2:1],,,,,,,,,,1,,3/7,,4/6,,1w5[8:1],,,,1,Cf,,,2,
{16}7,3,6,4,5,4,5,3,6,3,6,2,7,1,8,2,8,1,8,2,8,1,8,3,7,1,7,3,7,1,7,1,
{16}8,2,7,3,6,4,5,3,4,2,5,1,6,8,7,1,2,3,7,8,1,5,6,7,3,4,5,6/2,7/3,8/4,1/5,6/2hb[4:3],
{16},,,,,,,,,,,5s1[4:5],,,,,,,,,,,,3,,,,,,,,,
{16},,,4,,,,,,,,,,,,5-7>8[4:3],,,,,,,,,,,,8-2[4:3],,,,,
{16},,,,,,,2>3-5[16:11],,,,,,,,,,,,2b,,,8b,,,3/6,,1-5[8:1]/8,,,,6-4[8:1],
{16},,,2,,1-5[8:1]*-5[8:1],,8-2[8:1]*-2[8:1],,1,,8,,,,,,,,2-7[8:1]/3-6[8:1],,,
{32}2/3,E3,C,E7,
{16},,,5/8,,1/6,,,
{16},4/8,,2/6,,,,4,8,3,7,2-8[8:1],6,1,,7-3[8:1],,,,7/1v4[8:1]*v6[8:1],,,,1,,,,5-8[4:1]/7,,,,8>5[4:1],
{16},,,6x,,6x,,8-5[8:1]*q5[8:1],,,,8,,,,,,4,,3/5,,3/5,,2/6,,2/6,,1,7,3,5,2,
{16}7,4,6,5-8[2:1],,,,6,,,,6,,,,6,,,,1v4[2:1]/7,,,,7,,,,7,,,,7,
{16},,,2/8-5-3[2:1],,,,2,,,,2,,,,2,,,,1/3,,1,,2/8,,7,,5,6,4,5,3,
{16},2,,1/7,,2v3b[16:1],7v6b[16:1],,2,7,,,,4/5,,5,,2,1/3,,7q5[16:5],8/6,,,,5<7[4:1],,4,,3x,3x,,
{16}2x,2x,,,,4,,3,,2,3/1,,7,8/6h[8:1],,,,2/6-2[12:1]*-2[12:1],,4/8,,6b,,,,,,6-1b[8:1],,,,
{48}2bx,3,4,5,,,,,,8bx,7,6,5,,,,,,1b,,,,,,
{32}1bx,2,3,4,5bx,6,7,8,1bx,2,3,4,5bx,6,7,8,1bx,2,3,4,5bx,6,7,8,1bx,2,3,4,5bx,6,7,8,
{32}1x,2,3,4,5x,6,7,8,1x,2,3,4,5bx,6,7,8,1bx,2,3,4,5bx,6,7,8,1bx,2,3,4,5bx,6,7,8,
{32}1bx,2,3,4,5bx,6,7,8,1bx,2,3,4,5bx,6,7,8,1bx,2,3,4,5bx,6,7,8,1bx,2,3,4,5bx,6,7,8,
{32}1x,2,3,4,5bx,6,7,8,1bx,2,3,4,5bx,6,7,8,1bx,,
{16},3bx,,5bx,,7bx,,1hbx[16:3],,,2h[16:3],,,3,,8hbx[16:3],,,7h[16:3],,,6,,3/4bx-8[8:1],,,2,,,1,,6/5bx-1[8:1],
{16},,7,,,8,,3bx/4,,5bx/7,,2bx/1,,3bx/5,,6bx/7,,3bx/8,,4bx/5,,2bx/7,,3,6,4,5,3,6,4,5,3,6,,2,,3/4,,
{24}1bxx,5x,1x,5x,1x,5x,1x,5x,1x,5x,1x,5x,1x,5x,1x,5x,8x,5x,8x,5x,8x,5x,8x,5x,
{24}8x,5x,8x,5x,8x,5x,8x,5x,7x,5x,7x,5x,7x,5x,7x,5x,7x,5x,7x,5x,7x,5x,7x,5x,
{16},5/6,,3/4,,5/7,,2/4,,6/8,,1/3,,1/8,,2/7,,3/6,,4/5,,4,5,3,6,2,
{16}7,1,8b,,,,,1,2,3,4,1pp1[4:1]*qq1[4:1],8,7,6,1x,,,,,,,,8,7,6,5,8,1,2,3,4/6w2[8:1]*-2[8:1],
{16},5/7,,,,,,8x/4x,,,,8b>8[2:1],,8b,,Cf/B1/B3/B2/E3,,,,8b>8[2:1],,8b,,Cf/B1/B2/B3/E3,,,,8b,,8b,,1,
{16}2,3,4,8-5[8:1]*z4[8:1],,2/7,,8,,,,,,3,,1,2,,2-6[8:1]/8-4[8:1],,3/7,,2/8,,,,,,,3-1[8:1],,,
{16},6,,6-1[8:1],,,,5<4[8:7],,,,,,,,4,,5,,5,,6,,7,,8,,,,2/7,,3-1[8:1]/6-8[8:1],
{16},4/5,,,,,,1/7,2,3,4,5/1,6,7,8,1-5[8:1]/7,,2/8,,1/3,,,,8/2,7,6,5,4/8,3,2,1,8-4[8:1]/2,
{16},7/1,,8/6,,,,8q4[4:1],,,,4bq8[4:1],,4b,,8>4[4:1],,,,4b<8[4:1],,4b,,8>4[4:1],,,,4b<8[4:1],,4b,,,
{16},1,,2,,3,,4,,5,8h[8:1],,6,8h[8:1],,7,,1,,2/7,,3/6,,4x-1[16:1]/5,,,4x-7[16:1],,,4x,,,
{16},8,,7,,6,,5h[16:3],,,4,,3,4,,2,1,,8/7,,7/6,,6/5x-8[16:1],,,5-2[16:1],,,5x,,,,
{16},7,,6,,5,,4h[8:1],,6,4h[8:1],,8,4h[8:1],,2,4h[8:1],,5,4,,,,3/5h[8:1],,2,5h[8:1],,8,5h[8:1],,6,
{16}5h[16:3],,,4v1[8:1]*v7[8:1],,3/5,,4>4[2:1]*<4[2:1],,,,,,,,,,,,,,,,3/5,,6,,7/4,,3,,2/6,
{16},7,,2/8,,1-4[8:1],,,,1b,,5bw1b[8:1],,5bqq3[8:1]*pp7[8:1],,5b,,,,,,,4x/6x,,8,,4/6,,2,,3/5,,
{16}7,,3/5,,1,,2/7,,3,,4,,5,,3/6,,7,,8,,1,,2>8[4:3],,,,,,,,,,,,,,,,,,1-5[8:1],,1,,5w1[16:3],,5,,
{16},,,,,,1,2,3,4,1,8,7,6,2,3,4,5,1,8,7,6,5/4,3,2,1,4,5,6,7,3,2,
{16}1,8,5,6,7,8,1,8,2,7,3,6,4,5,3,6,2,7,1,8,1,8,2,3,4,5/6,7,8,3,2,1,7,
{16}6,5,4/3,2,1,,7-4[8:1],,7,,7/1-5[8:1],,1,,1/8-4[8:1],,8,,8/2-5[8:1],,2,,2/6<8[8:1],,6,,6/3>1[8:1],,3,,3/6,,
{16}7,,8-4[8:1],,,,8b/2b-5[16:1],,,6b-1[16:1],,,3b-8[16:1],,,7b,,,1bx,,,
{32}7bx/1x,6,5,,,,1bx/7x,2,3,,,,2x/8bx,7,6,5-1[16:1],,,7x/1bx,2,3,4,,,8bx,,,,,,1bx,8/2,7/3,6/4,5,
