&title=FUN FUN RE-BOOT
&artist=Famishin
&first=0
&des=Rhythlame
&lv_5=13+
&des_5=Rhythlame
&inote_5=
(180){4},,,,,,,,,,,1b,
,,4/3,{8}4/6,7,
8,1/B3f,,6/4,3,2/B6f,1,8,
7,5/Cf,4,3pp4p8<7[8:5],2,1/A3f,,,,,,6h[8:3],
,8h[8:7],,,{4}B7/E7/B6,
E2/B1/B2,{8}7<1[2:1],6,{4}1h[4:1]/A7f,
{8},,8,7qq8[2:1],,5h[4:1]/A7f,,,,,5,
4>6[2:1]/6<4[2:1],,A6f/A4f,,,,,5,
3<6[16:3],2,3/Cf,,,{4}7/8,
8/1,{8}1/2,3/4pp6>5[4:1],,4/2,
{4}1,{8}B5/B1,B7/B3,C,4xw8[8:1],,,,5xw1[8:1],
,,,,4/3,3/4,
5/2,7/8,,2/1v6<3[2:1],,3/A1f,,3,
4,5w1[8:1],,,,,{4}2/7-4[8:1],
{8}3,B2,{4}7-4[8:1],{8}1,B2,{4}8-5[8:1],
{8}2,B3,{4}1-6[8:1],{8}4,B3,{4}8<3[4:1],
{8}B8,B6,B4,B2,1x,2p5[8:1]/8<5[8:1],,,,8q5[8:1]/2>5[8:1],
,,,7,{4}2-5[8:1],
{8}6,B7,{4}2-5[8:1],{8}8,B7,{4}1-4[8:1],
{8}7,B6,{4}8-3[8:1],{8}5,B6,{4}1>6[4:1],
{8}B1,B3,B5,B7,8x,1>4[8:1]/7q3[8:1],,,,7<4[8:1]/1p5[8:1],
,,,3,5,3,
4v7[8:1],2-5[8:1],4,2,,8>3[8:1]*v2[8:1],,,{4}6x,
{8}5/3,6-1[8:1]/2v5[8:1],,2/6,,,{4}4/8,
{8}5/7,6qq1b[8:3]/4pp1b[8:3],,6/4,,,,8/2,
,5/6,4/5,4/3p6[4:1],,5,
{4}4q8[4:1],{8}4,3,2,1x/C,,6,
4-8[8:1],5-1[8:1],4-2[16:1],5<4[8:5],4,A5f,,,,,{4}1,
2/6,{8}3/7,4,
5/2,6,1/7-4[8:1],2q5[8:3],7,2,,8,
{4}8pp7[8:3],{8}4,5,5,{32}5/A4f,D4,A3,D3,A2,D2,{16}A1,,,{4}6V82[4:1],
6/2V47[4:1],{8}4,2x>7[8:3],,,7p1[8:3],
6h[8:1],,,5,4h[8:5],,,{4}3,
{8}2-5[8:1],7p4[8:3],2,7,,2,
{4}1qq2[8:3],{8}5,4,4,{32}4/A5f,D6,A6,D7,A7,D8,{16}A8,,,{4}A1/D2/A2/E2f,
A6/A5/D6/E6f,E4f/A3/D4/A4,{8}7,8,
E6,2,1,E4,7,2,7/1,6,
2/8p4[8:1],3,8/2q6[8:1],1,{4}2/8p3p7<2[4:3],8,
{8}1,1,{32},,,,,,,,4bx/D2f,A1,D1,A8,D8,A7,D7,A6,{8}D6,4/6x<3b[16:5],
5,{32}D7f,A7,D8,A8,D1,A1,D2,A2,{8}D3,{4}4bx/5bx,A8/E8/B7/B6/E6/A5/D1/A1/D2/Cf,
{8},A8/E8/B7/B6/E6/A5/D1/A1/D2/Cf,,,{4}Cf/A8/E8/B7/B6/E6/A5/D1/A1/E2/B4/A4,{64}B8/A5/A4/A3/A2/A1/A8/B7/E7/B6/E6/E5/B5/B4/E4/B3/E3/B2/E2/B1/E1/E8/A6/A7,Cf,,,,,,,,,,,,,,,{4}5bx/4bx,
3bx/6bx,2bx/7bx-3b[8:1],2bV46b[16:3],
{8}8b,7b-3b[8:1],,7b/1bv6b[8:1]*s5b[8:1],,1b,,,6/4>8[4:1],
7,{4}4/8p3[4:1],3qq8<7[4:3],5,
{8}5,4,4,5,5,6,{32}7bx/A4/5bx-8[8:1],D4,A3,D3,{8}A2,
{4}5b-2[8:1],5b/7b-3[8:1],7b/1b<6[8:1]*>4[8:1],1b,
{8}5V72[4:1],4,5/2V48[4:1],1-5b[8:1],,1x,,,4/7p1[4:1],
5,{4}1q7[16:3],2>6[4:1],{8}2,1,
8,7,6x/E8,5x/E7,4x/E6,3x/E5,{4}2x/E4f,
8/2>6[4:1],6q3[4:1],3<2[4:3],6,
{8}E6,E7,,E8,,8h[4:1]/3h[4:1],,,{4}1/2,
3/4,5/6,{32}8b,E1/E8f,B1/B7,B2/B6,E3/E6,A3/A5,,,,,,,{8}2b/3b,
,6b/5b,{32},,,,1/7,2,3,4,5,6,7,8,1,2,3,4,
{4}5,{8}6/4,5,2/4-6[8:1],3,4x,2>5[16:3],
3,2x-6[8:1],1,2x<7[8:1],3,2x,3,2,
1v4>2[4:1],8,{4}7/1,{8}5q1v6<8b[4:3]*p1v4>2b[4:3],5,,,,,,,,,{4}B6/E6/A6/B4,
B2/E2/A2/B8,{8}3/5,4,7/5-3b[8:1],6,5bx,7<4b[16:3],
6,7bx-3b[8:1],8,7bx>2b[8:1],6,7bx,6,7,
8/2,1,2/4,5/3>6[2:1],4/6,7/A3f,{16},,,,5x,
4x,{8}3xh[2:1],7,6<3[2:1],5,A6f,{16},,,,5x,
6x,{8}7x,4,5,{16}3,6,2,7,{8}1,2/8-4[8:1],
,8/3,,,8/1,{32}8b/1b,7/2,6/3,5/4,
E
