&title=SUPERNOVA
&artist=BACO
&first=-0.8
&lv_5=14
&des_5=Hsuan
&inote_5=
(150){4},{1},{4},,,{16}4,
,,3,,,{8}2,{16},1,,,{4}2,
{16}2,,,1,,,{8}2,1,2,3,4,
{16}5,,,6,,,{8}7,{16},8,,,{4}7,
{16}7,,,8,,,{8}7,8,7,6,5,
{16}4,,,3,,,{8}1,{16},2,,,{4}1,
{8}2,1,{4}2,{8}1,2,3,4,
{16}5,,,6,,,{8}7,{16},6,,,{4}5-1[1:1],
{8},,,,,,,,8b,
{16}8,7,,7,{8}6,{16}6,5,,5,{8}4,2/7,
6/3,{16}6,5,,3,{8}4,{16}6,5,,3,{8}4,6/3,
7/2b,{16}1,2,,2,{8}3,{16}3,4,,4,{8}5,2/7,
6/3,{16}4,3,,5,{8}6,{16}4,3,2,1,8,7,{8}6,
5b/4,{16}4,2,,5,{8}7,{16}4,2,,5,{8}7,3/6,
7b/2,6/3,{16}6,5,,3,4b,,,5,3,6,4,5,
{8}4/7,5,5/2,4,6/3,5/4,8/1,7/2,
{16}8,1,8,1,8,1,8,1,8,1,8,1,8,1,8,1,
{8}2/7b,{16}8,1h[16:3],{8}7,8,{16}7,2h[16:3],{8}8,7,8,
7/1h[16:3],8,7,8/2h[16:3],{4}8<5[16:3],{16}1,2,3,4,
{8}2,{16}1,8h[16:3],{8}2,1,{16}2,7h[16:3],{8}1,2,1,
2/8h[16:3],1,2,1/7h[16:3],{4}1>4[16:3],{16}8,7,6,5,
{8}6,{16}5,3h[16:3],{8}6,5,{16}6,4h[16:3],{8}5,6,5,
6/3,2,{16}2,1,,,{8}8,7,6,5,
3,{16}4,6h[16:3],{8}3,4,{16}3,5h[16:3],{8}4,3,4,
{16}3/6,7,8,1,7,8,1,2,8,1,2,3,1,2,3,4,
{8}8b,{16}8h[16:1],7,,5h[16:1],{8}6,{16}1h[16:1],2,,4h[16:1],{8}3,5,
8/1,{16}1/2,1,,,8/7,8,,1/2,{8}1,{16}8,7,6,5,
{8}4,{16}3h[16:1],4,,2h[16:1],{8}1,{16}6h[16:1],5,,7h[16:1],{8}8,1,
4/5,{16}5/6,6,,,4/3,3,,5/6,{8}6,{16}4,3,2,1,
{8}2/3,3,7/6,6,4/1,2,5/8,7,
5/4,5/1,5/4,4/8,6/5,4/1,4/3,5/8,
{16}4/5,3,2,1,7/8,1,2,3,4/5,6,7,8,1/2,8,7,6,
5/2,3,4,3,4/7,6,5,6,2/4,1,2,1,7/5,8,7,8,
{1}7-3[4:11],
5h[2:1],
1h[1:1],
{2},8h[2:1],
{1}2-6[4:11],
4h[2:1],
2h[1:1],
{4},,4h[2:1],{8}5,5,
{4}6b,5,5,5,
5/3h[8:3],5,5/4h[4:1],5,
5/3h[1:1],5,5,5,
5,5,5,{8}5,5,
{4}4/5h[2:1],4,4,4,
4/5h[8:3],4,4/6h[4:1],4,
4/7h[4:3],4,4,4,
{8}4/6h[4:3],4,4,4,3,4,3,4,
8b,7,8/7,8,1,2,2/1,1,
4,3,4/3,4,5,6,6/5,5,
7/6,7,6,7,3/2,2,3,2,
8/1,8,1,8,5/4,4,5,{16}4,5,
{8}3/6,2,3/8,4,6/3,7,1/6,5,
7/2,3,2/5,1,2/7,6,4/7,8,
4/1,3,2,3,4/2,5,6,7,
5/8,6,7,6,5/7,4,3,{16}2,2,
1b,,,3,{8}4,2,{16}1/2,,,8,7,8,,,7/6,
,,5,{8}6,7,{16}8/7,,,1,2,1,{8}1,
{16}3/2,,,4,{8}4,3,{16}5/2,,,5,6,5,,,4/7,
,,5,{8}5,6,{16}7/4,,,4,3,4,{8}4,
{16}2/5,,,1,{8}1,2/1,{16}3/8,,,8,7,8,{8}8,
{16}6/1,,,5,{8}5,4,{16}4/5,,,5,4,5,4,5,
3/6,5,3,6,3,5,4,6,3,4,6,5,3,6,5,4,
{32}5,6,7,8,1,2,3,4,5,6,7,8,1,2,3,4,5,4,3,2,1,8,7,6,5,4,3,2,1,8,7,6,
{8}5b,{16}2-6[8:1],3,4,5,7,8,1,2,3,4,8,7,6,5,
,,{8}4-1[8:1],1-6[8:1],6-3[8:1],3-8[8:1],8-5[8:1],5-2[8:1],2-7[8:1],
7-4[8:1],{16},,,,3h[8:3],6,7,8,1,2,4,5,6,7,
6h[8:1],5,,3h[8:1],{8}2,{16}8h[16:1],7,6h[16:3],5,4,3,4,5,6/4,6/4,
4/6,3,2,1h[8:1],{8}8,{16}6h[8:1],5,,3h[8:1],4,5,6,5,4,3,
4/5,3,6,3,6,6,7/2,5,7,2,7,2,1/2,8,7,1,
{8}3/5,{16}7-3[8:1],6,5,4,2,1,8,7,6,5,1,2,3,4,
5,4,5,4,6,3,6,3,7,2,7,2,7,2,7,8,
{1}1b,
{16}7,8,1,2,,,,,2,,,2,,,{8}3,
{16}4b,,,6,,,{8}5,,,,,,,{4}5,
{16}5,,,5,{8}6,6/8,
{4}1b,{8}1/3,3,{4}1,1,
8b,{8}6/8,6,8,7,{16}6/4,5,4,5,
{8}4b,4,4,4,2b,2,2,2,
{16}1b,1,1,1,7b,7,7,7,5b,5,5,5,3b,3,3,3,
6b,5,6,5,6,5,3,3,3,5,3,5,4,5,3,5,
2/1,2,1,8,1,2,8,2,1,2,8,2,8,2,8,2,
8/6,5,6,5,6,5,6,5,7,5,6,5,6,5,6,5,
4/3,5,4,5,4,5,4,5,4,5,{8}4/3,2/1,7/8,
{16}6/5b,3,4,3,4,3,4,3,5,3,4,3,4,3,4,3,
7b,6,7,6,7,6,7,6,1b,2,1,2,1,2,1,2,
6b,5,6,5,3b,4,3,4,3b,4,5,6,3b,4,5,6,
3,6,4,5,3,2,4,1,5,8,6,7,8,2,7,1,
8,7,6,5,4,3,2,1,{32}8,1,2,3,4,5,6,7,8,1,2,3,4,5,6,7,
{1}8b,
{2}6,4,
{1}5,
{2},5,
{1}3,
{2}6,5,
{1}4,
E
