&title=Sthenno
&artist=BlackY
&first=1.43
&des_1=SetDesigner
&des_2=SetDesigner
&des_3=SetDesigner
&des_4=SetDesigner
&des_5="Serpentes"
&lv_5=14
&des_6=SetDesigner
&des_7=SetDesigner
&des=SetDesigner
&inote_5=(185)
{16}
4h[8:5]/3,,,,,,,,,,2,,,,65,,,,8z4[8:2]/C1,,,,,,,,1,,1,,,,
5h[8:5]/6,,,,,,,,,,7,,,,42,,,,1s5[8:2]/C1,,,,,,8,,8,,7,6,5,,2h[8:5],,,,1,,1,,,,3,,,,65,,,,7/2z6[8:2],,,,,,,,8,,8,,,,
5h[8:5],,,,4,,4,,,,7,,,,61,,,,4x/E8,,,B3/6x,,,1x>4[8:1]/5x<8[8:1],,,,,,,,
{8}
26,2,5,1h[8:2],,7,6,54,,81,7/2>5[8:2],,6,7,8,,
73,7,4,8h[8:2],,2,3,45,,78,6h[8:2]/1,,2,2,
{16}
5,3,5,3,
{8}
4,4,2,2,8,8,1,E7,4,B2,5,5,6,6,81,
{16}
2,4,3,5,3,5,4,6,4,6,2,5,2,5,3,7,3,7,
{8}
5b>4>2[8:1],1b<8<6[8:1]b,,,,,7b/3b,,
2h[8:1],5,2h[8:1],5,3h[8:1],4,3h[8:1],4,3h[8:1],2,3h[8:1],2,4,5,6,7,
1h[8:1],8,1h[8:1],8,5h[8:1],6,5h[8:1],6,2h[8:1],1,2h[8:1],1,3,4,5,6,
2h[8:1],1,C1,8,3h[8:1],4,E2,5,6h[8:1],4,E8,3,2,1,8,7,
4h[8:1],5,E3,6,7h[8:1],8,B6,1,3h[8:1],4,E1,6,7b/5b,7b/5b,,,
3h[8:2],4,5,5h[8:2],4,3,2h[8:2],8,7,6h[8:2],4,3,2h[8:2],1,7h[8:2],8,
3h[8:2],4,C1,5,2h[8:2],1,E7,8,5h[8:2],3,C1,4,7h[8:2],4,E3,5,
2-4[8:1],1,2,7>1[8:1],6,7,3-5[8:1],2,3,6,6,8,7<5[8:1],1,7,2,
{16}
3x,4,3,4,1,8,1,8,2x,3,4,5,1,8,7,6,
3x,2,1,8,73,6,5,4,8x/3x,1,2,3,8/4,5,6,7,
{8}
8xb/1h[8:6],,5,,5,,5,{16}4,6,4-2[8:1],,7,,,,5-7[8:1],,,,1,,2,,3,,{8}5/4>8[8:2],,8<4[8:2],,4,,8,8,7<5[8:1]/1>3[8:1],8,71,,{16}62,,3,4,2,,6,5,{8}1xb/8h[8:6],,4,,4,,4,{16}5,3,6-1[8:1],,7,,2-5[8:1],,3,,,,8,,,,71,,{8}6>2[8:2]/2,,2<6[8:2],,6,,2,3,5-8[8:1]/4-1[8:1],,,,
{16}2h[8:1]/4h[8:1],,,7h[8:1]/5h[8:1],,,81,,8<5[8:1]/1>4[8:1],,,,8b/1b,,,,72,,3,,54,,6,5,7h[8:2],,8,,5h[8:2],,6-2[8:1],,,,1-5[8:1]b,,,,,,7b,,,,E6/E4,,,,24,,3,,75,,6,,81,,5b/4b,,7b/2b,,3,4,2,,{32}E6,B5,B3,E3,1x,,,,E2,B1,B7,E7,{8}5xw1[8:1],,5b,,73,6,5,{16}3,4,2h[8:2],,1,,4h[8:2],,3-7[8:1],,,,5<8[8:1]b,,,,,,1,2,3,4,8,7,6,5,2,1,3,8,4,7,5,6,3,4,2,5,3,4,1,5,{24}2,3,4,7,6,5,8,7,6,1,2,3,4/8bq6q4[4:7]*p2p4[4:7]b,,,,,,{16},,,,,,,,,,,,,,,,,,,,,,,,,,,,,,,,,,,,6,5,,5,4,,4,3h[16:5],,,,,
6,5,6,5,6h[16:3],,,7h[16:3],,,8h[8:1],,1p3p5[4:7]*q7q5[8:14]b,,,,,,,,,,,,,,,,,,,,,,,,,,,,,,,,,,,,,,,,A6/E6/A5,,,,{12}2,,{16}4,,3h[24:5],,{48},,,,
{16}B8,,B6,,E4hf[8:4],,,,,,,,1b>4p3q6[4:7],,,,,,,,,,,,,,,,,,,,,,,,,,,,,,,,8x,,,,,,,,3,4,,4,5,,5,6h[16:5],,,,,
3,4,3,4,3h[16:3],,,2h[16:3],,,1h[8:1],,8<5q6p3[4:7]b,,,,,,,,,,,,,,,,,,,,,,,,,,,,,,,,1x,,,,,,,,A3/E4/A4,,,,{12}25,,,
{8}
E4hf[8:8],,,,E8hf[8:4],,,,C1f,,,,,,,,,,,,,,,,,,,,,,,,
{16}
1,8,1,8,1,8,1,8,3,4,3,4,5,6,5,6,2bq5[8:6],,,,,,,,,,,,,,,,7p4[8:6],,,,,,,,,,,,,,,,1h[8:1],,,1h[8:1],,,8h[8:1],,,8h[8:1],,,2,,3,,5h[8:1],,,5h[8:1],,,6h[8:1],,,6h[8:1],,,3,,4,2,8p5[8:6],,,,,,,,,,,,,,,,
1q4[8:6],,,,,,,,,,,,,,,,8,,,,6,,6,,,75,,,34,,2,2,5,,,,34,,6,6,5h[16:3],,,7h[16:3],,,1h[8:1],,3s7[8:6],,,,,,,,,,,,,,,,4s8[8:6],,,,,,,,,,,,,,,,5h[8:1],,,5h[8:1],,,1h[8:1],,,1h[8:1],,,B7,,B3,,6h[8:1],,,6h[8:1],,,2h[8:1],,,2h[8:1],,,A8,,4,5,3,,1,,2,2,2,,6,,8,,7,7,7,,3,,5,,4,4,4,,6,,1,,5,5,5,,3,4,3,4,1,8,1,8,5,6,4,7,1,8,3,5,
{8}2b-6[8:1],6b-2[8:1]b,,,8w4[8:1],,8x,,
6hx[8:1]/1hx[8:1],,6h[8:1],1h,6h[8:1]/2h[8:1],,6h[8:1],2h,6h[8:1]/3h[8:1],,6h[8:1],3h,6h[8:1]/4h[8:1],,5,5,4xh[8:1]/6xh[8:1],,4h[8:1],6h,4h[8:1]/7h[8:1],,4h[8:1],7h,4h[8:1]/8h[8:1],,4h[8:1],8h,4h[8:1]/1h[8:1],,8,8,2x/5x,25,{16}3,4,3,,81,,81,,6,5,6,,7x/4x,,74,,2,1,2,,83,,83,,5,4,5,,
2x,8,2,8,3x,7,4,6,1x,1,1x,1,1x,1,1x,1,1h[8:3],,,,,,
7,6,5w1[8:1],,,,C1f,,,,
7b/3b,,,,2-6[8:1]/6,,53,,26,,8,,8,,1,7,2,6,3,,54,,6,5,7-5[8:1]b,,8-4[8:1]b,,7,,8,,1x<6[8:1],,,2,1,,4,,3,5,2,,81,,7,,6x-1[8:1],,,5,6,,3,,2,2,4,,53,,6,4,8-5[8:1]*<7v5[8:1],,,,A1f/8b,,,3,,,2,4,2,,7,5,7<4[8:1],,,,7b/A8f,,,1,,,2,4,2,,6,5,8,,,,
73,,2,5,2,,64,,7,5,7,5,8h[8:2],,,,1,,4,5,6x/3x,,,1h[8:1]/7h[8:1],,,5/4,,6b/2b-8[8:1],,,,7-3[8:1],,6,,7,,1,,1,,2,8,3,7,4,,65,,8,8,1,,45,,63,,1,8,
{32}2x,3,4,5h[32:8],,,1,,,,,,7x,6,5,4h[32:8],,,8,,,,,,1-4[16:1]b,,,,7,,,,
{16}5b-8[16:1],,,2b-7[16:1]b,,,6b-3[16:1],,,1b,,,82,,5,5,64,,64,,7/8x>3[8:1],,,6,8,,5,,7<4[8:1]b,,8,1,7b/A2,,,,4x<7[8:1],,,2,4,,1,,3>8[8:1]b,,4,5,3b/A6,,,,7,,7,,8,6,8,6,8,6,8,6,2,4,3,7,5,6,1,8,
{24}A2,A3,A4,A7,A6,A5,E3,E4,E5,E7,E6,E5,{16}1b,,7,5,8,,61,,52,,3,4,1,,82,,5,64,,1,82,,,73,,,84,,15,,3,7,{32}1x,2,3,4h[32:8],,,8,,,,,,2x,3,4,5h[32:9],,,1,,,,,,{16}8,,71,,3>1[8:1]/5<7[8:1],,4,,35,,,,84,,84,,7,3,6,2,5-8[8:1]*<6v8[8:1],,,,A4f/5b,,,
2,,,7,1,7,,3,3,4<7[8:1],,,,4b/A3f,,,1,,,2,2,8,,6,5,7,,,,34,,2,8,1-5[8:1],,7,,1,,6,6,8,,72,,63,,15,62,7-4[8:1]/3-8[8:1],,,,7b/3b,,,,
2x/6x,,2,,2x/6x,,6,,4x/7x,,4,,4x/7x,,7,8,1x/5x,,5,,1x/5x,,1,,7x/3x,,26,,1x/5x,,C1,,{32}7x/8xh[32:7],6,5,4,,,,,,,,,1x/2x,83,47,6h[16:2]/5h[16:2],,,,,,,,,{16}1-4[16:1]b,,7,,
{16}5b-8[16:1]/1,,,2b-7[16:1]b/5,,,6b-3[16:1]/2,,,1b/6,,,82,,82,,
54,,7,8,6,,51,,2,4,3,4,2,,81,,75,,6,6,4,,12,,7,5,6,5,7,,81,,
3,4,2,5,1,6,7,8,5,6,4,7,3,8,2,1,3,4,5,6,2,1,8,7,{32}2,3,4,5,6,7,8,1,{8}2x-5[8:1]b/6x-1[8:1]b,,2bx-8-6-8-2[8:12]*-8-6-8-2[8:12]`6bx-4-2-4-6[8:12]`C1f,,,,,,,,,,,,,,,,73,E4,E5,E6,,1,1,8x/2x,5,7x/1x,4,,63,63,{16}E2,E1,E8,,{8}63,E6,E5,E4,,8,8,1x/7x,4,8x/2x,5,,73,73,{16}E2,C1,E6,,74,,E4,,C1,,E8,,,,6,,6,,75,,,,4x/E8,,,B3/E3/6x,,,1x>4[8:1]/5x<8[8:1],,,,,,,,
{8}26,2,5,2,4,2,3,1x/4x,6,1x/4x,7,,8,6,5,4,73,7,4,7,5,7,6,8x/5x,2,8x/5x,3,,
{16}7,1,6,,2,8,3,,71,,6,,5,5,5,,28,,3,,4,4,4,,65,,7,,8,8,8,,43,,2,,1,1,1,,
7,6,5,4,1,2,3,4,7,6,5,4,73,2,1,8,75,4,3,2,15,8,7,6,{24}85,1,2,3,4,5,26,3,4,5,6,7,8/1-5[8:1],,,,,,8hb[8:33],,,,,,,,,,,,,
E
