&title=オレンジ
&artist=seven oops /《四月是你的谎言》ED2
&first=-0.131
&des=谱师A
&wholebpm=86.000
&lv_5=12
&des_5=
&inote_5=(86)
{4},,
3h[1:1],,,,
{8}4h[8:3],,,3,,4,5,6,
{4}5h[4:3],,,6,
7>1[16:11],,6q2[8:1],,
{16}3h[16:3],,,4,,2,,,7qq5[4:1],,,,,,,,
2h[16:3],,,1,,3,,,6>3[4:1],,,,,,,,
1h[4:1],,,,8,,3,,6h[4:1],,,,5h[4:1],,,,
4-8[4:1],,,,,,3,3h[16:5],,,,,,,,,
8,,,,2,,8,,,,2,,8,,,,
1,,,,,,7,,6,,5,,4,,,,
2pp4[6:1],,5,,7,,,,6,,4,,,2h[16:3],,,
1,,,,8p4[4:1],,,,4,,2,,,1h[8:1],,,
6h[4:1],,7,,4h[4:1],,2,,5h[4:1],,7,,1,,28,,
7q3[4:1]/3,,1,,4,,{32}5,,,5qq3[6:1]*pp7[6:1],{16},,,,,,,,
1,,7,6,5h[8:1],,4,,7,6,5,4,,2,,1,
1h[4:1],,8,,6<1[8:1],,1,,2,3,4,5,,3,,1,
1<6[8:1],,,,,,5,,7,,7h[8:1],,8,,8h[8:1],,
1qq6[2:1],,,,2,,2,,,,3,,,,5,5w1[8:5],
,,,,,,,,,,,,,,,,
37,,37,,,,15,,,,28,,3,4,5,,
3b>6[4:1]/7b,,,,5,,4,4h[16:3],,,3,5,26,,,,
7/8q4[8:1],,5,5,,7,,1/2,1-5[8:1]/2v4[8:1],,38,,12,,,6,
6b<3[4:1]/2b,,,,4,,5,5h[16:3],,,6,4,73,,,,
2/1p4[8:1],,4,4,,2,,68,8-4[8:1],,17,,8,,2,,
4h[8:1],,5h[8:1],,6<4[4:1],,7,,8h[8:1],,,,1,,8,7,
{32}5h[8:1]/6,,,,4,,,4h[8:1],,,,3,,,,3pp3[6:1]*qq3[6:1],,,,,,,,,,,,,,,,,
{16}2-5[8:1]/5,,,,7,,,,4/7-4[8:1],,,,2,,,,
1<3[2:1]/5h[4:3],,,,,,,,,,,,,,,,
8<4[4:1],,,,4V28[4:1],,,,8<4[4:1],,,,4V28[4:1],,,,
8,,,,4b,,,,3pp4[1:1],,,,3V14[4:3],,,,
,,,,,,,,,,,,,,,{32}3,4,
5,6,,,,,,,,,,,,,,,
,,,,,,,,,,,,,,,,
,,,,,,,,,,,,,,,,
