&title=クソデッカー★オーディエンサー
&artist=GYARI
&first=0
&des=crystal
&lv_2=5
&lv_3=7+
&lv_4=12+
&lv_5=14
&inote_2=(190){2},4bxh[1:2],,,,5bxh[1:2],,,,Cf,,,,8,8,7,7,1h[1:1],,,,2h[1:1],,,,4s8[4:5],,,,5x-1b[4:3],,,,
7/8,7,7/8,8,1/2,2,1/2,1,6,5,4,3,2,2,7,7b,{4}8,,8,,1,,1,,7,7,7,,2h[2:1],,,,3h[1:1],,,,,,,,6bxh[1:1],,,,,,,,8x^3[4:5],,,,,,,,1x^6[4:5],,,,,,,,5,,5,,4,,4,,1/8,,1/8,,1b/8b,,,,2,,3,,2,,,,7,,6,,7,,,,B6,,B7,,B8,,B1,,B2,,B3,,B4/B5,,,,
4bx/5bx,,6,,4/5,4/5,3,,2h[2:1],,,,8h[2:1],,,,7h[2:1],,,,1h[2:1],,,,8,8,8,,1,1,1,,2bx>7[4:5],,,,,,,,7<2[4:5],,,,,,,,1,,8,,7,,6,,5,5,5,,4,4,4,,Chf[1:2],,,,,,,,,,,,,,,,1xh[1:1]/8xh[1:3],,,,,,,,,,,,,,,,,,,,
5/6,,5/6,,3/4,3/4,3/4,,3/4,,3/4,,5/6,5/6,5/6,,4bx,3bx,2bx,1bx,8bx,7bx,6bx,5bx,4x,,4xb,,5x,,5xb,,1/2,2,2xb,,7/8,7,7xb,,6q3b[4:5],,,,,,,,8,8,8,,1,1,1,,7,7,7,,2,2,2,,6,6,6,,3,3,3,,4xh[1:1],,,,,,,,5xh[1:1],,,,,,,,
1bx/8bx,,2,,1/8,1/8,7,,6h[2:1],,,,5h[2:1],,,,4h[2:1],,,,3h[2:1],,,,2,,1,,7/8,,7/8,,6bx,6bx,5bx,5bx,4bh[2:1],,Cf,,7,,7,,8,,8,,1x^4[4:5],,,,,,,,5^8[4:5],,,,,,,,1,,2,,7,7,7,,6,,5,,3/4,3/4,3x/4x,,{1}Chf[1:4],,,,,,
{4}6bx,6,6,,5,,5,,4,4,4,,3,,3,,7,7,7,,8,,8,,1/2,,1/2,,7/8,,7/8,,7bx,7,7,,8,,8,,1,1,1,,2,,2,,3h[1:2],,,,6h[1:2],,,,,,,,,,,{8},C,E
&inote_3=(190){2},5x<4>5b[4:15],,,,,,,,{4}4xbh[1:1],,,,5,6,7,,5h[1:1],,,,4,3,2,,1h[2:3]/8,,7,,8,,7,,8h[2:3]/1,,2,,1,,2,,3,,3,,6,,6,,4/5,4/5,4/5,,4b/5b,,,,
5,5,5,,4,4,4,,6,6,6,,3,3,3,,7,8,1,,8,1,2,,3>6[4:5],,,,,,,,5/6,5/6,5/6,,3/4,3/4,3/4,,1/2,1/2,1/2,,7/8,7/8,7/8,,6h[2:3]/1,,2,,3,3,3h[1:2],,8,,7,,6,,5b,,4x,4x,,3h[4:3]/5h[4:3],,,,,5x,5x,,6h[4:3]/4h[4:3],,,,,8,1/7,1,8/2,1h[2:1],,8,,3x/7x,,2x/6x,,3x/7x,,2x/6x,,1/8-3[4:5]*-5[4:5],,,,,,,,2/6,,2^8[4:3]/6^4[4:3],,,,,,7h[2:1],,,,2h[2:1],,,,E2/E8,E3/E7,E4/E6,,4bxh[2:1]/5bxh[2:1],,,,
3b-7[4:1]/6bx,,,,6-2[4:1]/3x,,,,4-8[4:1]/5x,,,,5-1[4:1]/4x,,,,7/8,,7/8,,1/2,,1/2,,1h[2:1]/6,7,8,1x/8x,8h[2:1]/1,2,3,,6bx/3b^8[4:1],,,,3x/6^1[4:1],,,,6x/3^8[4:1],,,,3x/6^1[4:1],,,,4,5,4,5,4,,4,,4h[2:3],,,,8h[2:1],,,,7x,,8x,,1x,,2x,,1b>5[4:5]*<5[4:5],,,,,,,,C,,,,
5xh[1:2],,,,3,3,3,,3h[1:2],,,,7,7,7,,7h[1:2],,,,1,1,1,,1,,2/8,,3/6,3/6,3x/6x,,1bxh[4:1]/8bxh[4:1],,2bxh[4:1]/7bxh[4:1],,3bxh[4:1]/6bxh[4:1],,4bxh[4:1]/5bxh[4:1],,4bh[4:1]/5bh[4:1],,3bh[4:1]/6bh[4:1],,2bh[4:1]/7bh[4:1],,1bh[4:1]/8bh[4:1],,1bxpp4[4:5]/8bxqq5[4:5],,,,,,,,4qq1b[4:5]/5pp8b[4:5],,,,,,,,1h[2:3]/8,8,7,7,6,6,7,,8h[2:3]/1,1,2,2,3,3,2,,2/4,,5/7,,6h[1:1],,,,3h[2:1],,,,3,,3,,E3,,C,,E7,,,,
8b-4[4:1]/2xb,,,,1-5[4:1]/7x,,,,8-4[4:1]/3x,,,,1-5[4:1]/6x,,,,7,7,8,8,1,1,2,,{8}1,1,1,,8,8,8,,{4}1/2,1/2,7/8,7/8,6bh[2:1],,5bh[2:1],,4bh[2:1],,{8}3bx,3bx,3bx,,{4}2b^7[4:1]/6bx,,,,7^2[4:1]/3x,,,,2,3,4/5,4/5,7,6,4/5,,3,2,6,7,1/8,1/8,1/8,,1h[2:1]/8,8,8,,8h[2:1]/1,1,1,,1/8,,2/7,,3/6,,4/5,,6h[2:1],,,,5h[2:1],,,,4h[2:1],,,,3h[2:1],,,,3b/6b,,,,,,,,
{1}8bx/1bx-7^6-2^3-5b[4:13],,,,{4}5,6,7,8,1,2,3,,B4,B3,B2,B1,B8,B7,B6f/B5,,7/8,7/8,1/2,,1/2,1/2,{8}2,3,4x,,{4}2/1,2/1,8/7,,8/7,8/7,{8}7,6,5x,,{4}5xh[2:1],,3,,4h[2:1],,6,,5/6,5/6,3/4,3/4,4xh[8:7]/5xh[2:1],,,{8},5bx,E
&inote_4=(190){2},{8}6x,6x,6x,6x,6x,6x,6x,,3x,3x,3x,3x,3x,3x,3x,,5x,5x,5x,5x,5x,5x,5x,,4x,4x,4x,4x,4,,4w8b[8:1],,Cf,,,,,,,,,,,,,,,,7,,8,,1/2,1/2,,3h[8:3],,,2,1,,5/6,,,7,7,7,,7/8-4[4:1],,,,,,2/1-5[4:1],,,,,,3h[2:1],,,,4h[2:1],,,,5h[2:1],,,,6,,,,3/4,3h[4:1]/4h[4:1],,,,2x/5x,2x/5x,,6/5,6h[4:1]/5h[4:1],,,,7x/4x,7x/4x,,8,8,1,1,8,8,1,1bh[8:5],,,,,,,,,
2/4,,2/4,2/4,,1/8,1/8,,5/7,,5/7,5/7,,1/8,1/8,,6/3,,6/3,6/3,,2h[8:1],,,6/3,,6/3,6/3,,7h[8:1],,,8,,8h[4:1],,1,,1h[4:1],,2,,2h[4:1],,3,,3h[4:1],,6,6,,6,,6,6,,3,3,,3,,3,3,,2h[2:1],,,,B7/E8,,B5/B6,,5-1[4:1],,,,3xh[2:1],,,,8,,2/7,1h[8:5]/6h[8:5],,,,,,,7/2,8h[8:3]/3h[8:3],,,,,4,,4,,5,,5,,4h[2:1],,,,5h[2:1],,,,4qq1b[4:5]*pp7b[4:5],,,,,,,,,,,,,,,,4xh[2:1]/8xh[2:1],,,,,,4/8,,,,E4/E8,E7/E3,E6/E2,,,,1xh[2:1]/5xh[2:1],,,,,,1/5,,,,E2/E6,E7/E3,E8/E4,,,,8qq8[2:1],,,,,,,,1pp1[2:1],,,,,,,,7h[2:1],,,,6h[2:1],,,,5h[2:1],,,,4,,,,2h[4:3]/3h[4:3],,,,,,,,,1,8,7,6,,6,,5x/6x,,,3x/4x,,,1/8h[4:3],,,,2,,1h[2:1],,7,,8,,8,,8,,8,,1,,1,,1,,1,,6,6,3,3,{16}5,4,5,4,5,4,5,4,{8}5x,,2b/7b,,,,,,
8b,,1-4[4:1]/2-5[4:1],,,,,,6/7,,6/7,,2/3,,2/3,,1h[8:3],,8,8h[2:1],,,1,1,,,2,,3,,4,,8,7,6,,1,2,3,,7,6,5,,2,3,4,,6b-1[4:1]/2b-5[4:1],,,,,,,,3b-8[4:1]/7b-4[4:1],,,,,,,,1b,,8-4[4:1]/7-4[4:1],,,,,,2/5,,2/5,,4/7,,4/7,,3,,6,6h[8:3],,,2,2,,,1,,7,,5,,4h[1:1],,3,,3,,3,,5h[1:1],,6,,6,,6,,4^1[4:1]*^7[4:1],,,,,,,,8w4[4:1],,,,,,,,2h[2:1],,,,4h[2:1],,,,5h[2:1],,,,7,,,,7bV58[4:3]/2bV41[4:3],,,,,,,,,,,2x/7x,,3x/6x,4x/5x,,Ch[1:1],,,,,,,,
5,5,5,,5,5,5,,5h[4:3]/4,4,4,4x,,4x,4x,,4,4,4,,4,4,4,,4h[4:3]/5,5,5,5x,,5x,5x,,5/6,,7/8,,4/3,,1/2,,5/6,,7/8,,3/4,,1/2,,3,3,6,6,2,2,7,7,{16}1x,8x,1x,8x,1x,8x,{8}1hx[4:1],,,,,{16}E4f,B3,B2,E2,E8f,B7,B6,E6,E4f,B3,B2,E2,E8f,B7,B6,E6,A3f,D3,A2,D2,A7f,D7,A6,D6,A3f,D3,A2,D2,A7f,D7,A6,D6,E5f,B4,B3,E3,E1f,B8,B7,E7,E5f,B4,B3,E3,E1f,B8,B7,E7,A4f,D4,A3,D3,A8f,D8,A7,D7,A4f,D4,A3,D3,A8f,D8,A7,D7,{8}6bxh[1:1],,,,,,,,2bx,,2bx,,2bx,,2bx,,5bx,3bx,5bx,3bx,5bx,3bx,5bx,3bx,4b,4b,4b,4b,4b,,,,
6,,6,,7/8,,7/8,,1,,1,,2/3,,2/3,,2pp5[4:3],,,,6,,6,,6^1[4:1],,,,2h[2:1],,,,1s5[2:1],,,,,,,,5s1[2:1],,,,,,,,2-4v5-7b[4:5],,,,,,,,8,,,,8,,,,{16}8,7,6,5,4,3,2,1,8,7,6,5,4,3,2,1,{8}8xh[2:1],,,,C,,,,
4b,,5-8[4:1]/6-1[4:1],,,,,,2/8,,2/8,,1/7,,1/7,,6h[8:3],,3,3h[2:1],,,5,5,,,4/6,,4/6,,4/6,,3,2,1,,6,7,8,,5h[4:1]/3,2,1,,4h[4:1]/6,7,8,,4bV28[4:1]/8bV64[4:1],,,,,,,,5bV71[4:1]/1bV35[4:1],,,,,,,,4bx/E7f/B6/B7,,,,5bx/E3f/B3/B2,,,,3bh[4:1]/6bh[4:1],,,,1b/8b,1b/8b,1b/8b,1b/8b,1b-3[8:1]/8b-4[8:1],,,,8-6[8:1]/1-5[8:1],,,,1-3[8:1]/8-4[8:1],,,,8-6[8:1]/1-5[8:1],,,,7h[1:1],,3,,2,,1,,8h[1:1],,6,,5,,4,,5,,6,5,6b/5b,,3,4,3b/4b,,2,,1,,8,,7,8,7,6,2,1,2,3,6,7,6,5,3,2,3,4,5<4[4:3],,,,,,,,5b-8[4:1],,,,4bh[2:1],,,,6h[2:1],,7x,,5h[2:1],,8x,,4h[2:1],,1x,,3h[2:1],,2x,,4h[2:1],,1x,,5h[2:1],,8x,,6h[2:1],,7x,,5h[4:1],,8x,,7bV58[4:3]/2bV41[4:3],,,,,,,,,,,2x/7x,,6x/3x,5x/4x,,
3b,3,3,3,2xh[8:1],,2xh[8:1],,1,1,1,1,8xh[8:1],,8xh[8:1],,6,6,6,6,7xh[8:1],,7xh[8:1],,8,8,8,8,1xh[8:1],,1xh[8:1],,2/3,,2/3,,4h[4:1]/5h[4:1],,,,7/6,,7/6,,5h[4:1]/4h[4:1],,,,8h[4:3]/7,,7,,1,,1,,1/2h[2:1],,,,1,,,,{4}B3,B2,B1,B8,B7,B6,B5,B4,E5,E6,E7,E8,E1,E2,E3,E4,4,4,5,5,3,3,6,6,{16}3x,6,3,6,3x,6,3,6,2x,7,2,7,2x,7,2,7,1xh[8:7],,{8},,,7x-3b[8:1],,,E
&inote_5=(190){2},{12}8x,1,8,1,8,1,7x,1,8,1,8,1,6x,1,8,1,8,1,5x,1,8,1,8,1,4x,1,8,1,8,1,3x,1,8,1,8,1,2x,1,8,1,8,1,7x,1,8,1,8,1,{1}8bx/B8/Cf/B4,,{8}1/2,,4V62[4:1]/3,,4/3,3q4<1[8:7],,3,,,E7,,E6,,E5,,6h[4:3]/8-5[8:1],,8,,4-1[8:1],,4,,2q6[8:1],,2h[4:1],,7p3[8:1],,7h[4:1],,8,,,,{16}1,2,{8}3h[8:7],,,{16}5,6,{8}7h[8:3],,,,,4/8,1/5,4q1[2:1]/8,8,,8,,8,8,,1/8V63[2:1],1,,1,,1,1,,{32}1,2x,3x,,8,7x,6x,,2,3x,4x,,7,6x,5x,,1-5[8:1],2x,3x,,8-4[8:1],7x,6x,,{8}1,8b,,,,,,,{4}7h[8:1],
7h[8:1]/1-4^3-6[2:3],7h[8:1],7h[8:1],7h[8:1],7h[8:1],7h[8:1],7h[8:1],7h[8:1],7h[8:1]/5-2^4-8[2:3],7h[8:1],7h[8:1],7h[8:1],7h[8:1],7h[8:1],7h[8:1],7h[8:1],{8}2h[8:1],8,2h[8:1],7,2h[8:1],6,2h[8:1],5,2h[8:1]/4,,2h[8:1]/5,,2h[8:1]/6,,2h[8:1]/7,,1/8,1/8b-4[8:1],,8/1bV72[4:1],,1,,,8/1,8/1b-5[8:1],,1/8bV27[4:1],,8,,,3-7[8:1],5<3[8:3],3,5,,4,4,,1-5[8:1],6<3[8:3],1,6,,4,4,,2-6[8:1],7>3[8:3],2,7,,6,6,,4-6[8:1],8^3[8:3],4,8,,5,5,,8x-5b[2:1]/2,2,2,2,2,2,2,,8h[8:1]/3x-1v8-6b[2:1],,7h[8:1],,8h[8:1],,1,,8x<1b[4:5]/2b,,,,8b,,,,6b,,,,4b,,,,6h[4:1],,5,6,5h[4:1],,6,,A8/2qq5[2:1],,E8,,E7,,A6,,6^1[4:1],,1^4[4:1],,4^7[4:1],,7pp4[2:1],,,,,,,,1/2,3/8,4/7,,6v4[4:1],,4V68[4:1],,1-6-3-8-5b[4:3],,1,,7-4[4:1],,7,,,,{16}6,,,,,,4,5,3b,,,,,,8,1,7b,,,,,,1,8,{8}2b,,,,7-3[4:1],,3-7[4:1],,1p3>6[4:3],,1,,,,A5,,A5,,A5,,4b/6b,,2,1b/3b,,8,1bp2[4:3]/7b<2[4:3],,,,,,,,,,6x,6,6,6,6x/4x,4,4,4,4x/2x,2,2,2,2x/8x,8,8,8,{16}7b,1,7,1,6b,2,6,2,5b,3,5,3,6b,4,6,4,{32}6b,7,8,1,2,3,4,5,{8}6bxh[16:7]/2bxh[16:7],,,,,,
{4}4V28[8:1]/8,7/4b,5V71[8:1]/1,2/5,4V28[8:1]/8,7/4,5V71[8:1]/1,2/5,4V28[8:1]/8,7/4,5V71[8:1]/1,2/5,4V28[8:1]/8,7/4,5V71[8:1]/1,2/5,{16}4V28[8:1]/7,6,5,,{4}7/4,{16}5V71[8:1]/2,3,4,,{4}2/5,{16}4V28[8:1]/7,6,5,,{4}7/4,{16}5V71[8:1]/2,3,4,,{4}2/5,{12}3,4,3,2b/5b,,,6,5,6,4b/7b,,,2b,2,2,{4}1bh[4:1],8bh[4:1],7bh[4:1],1^3[8:1],1-5[8:1]/7,1^3[8:1]/7,1/7,8-4[8:1],8^6[8:1]/2,8-4[8:1]/2,8/2,{8}1x-5[8:1],,1/5,6x-1[8:1],,6/1,2,3bpp6[8:5],,,1,,8,,7,,8-6[8:1],8,2-4[8:1],2,8-6[8:1],8,2-4[8:1],2,7-5[8:1],7,1-3[8:1],1,7-5[8:1],7,1-3[8:1],1,6b,,{16}4,3,2,1,8bh[4:1],,,,7,6,5,4,3bh[4:1],,,,1,2,3,4,5bh[4:1],,,,6,,,,6,5,6,,3b/8b,,,,3,4,3,,6b/1b,,,,6,5,6,,3b/8b,,,,3,4,3,,6bh[8:9]/1bh[4:1],,,,{96}B1,Cf,B5,{32}5bxh[32:27],{16},,,,,,,{8},,,,,5/6,4/7,3/8,1h[4:1]/2h[4:1],,,,{1}C,
7h[4:7]/1-5^4-2[2:3],,3h[4:7]/7v5<1[2:3],,{8}7,8,6,1,5,2,4,3,1,2,8,3,7,4,6,5,{16}7,8,6,1,5,2,4,3,1,2,8,3,7,4,6,5h[16:9],{1}4xh[2:1],{32}1bx/Cf,8x,7x,6x,5x,4x,3x,2x,1bx,8x,7x,6x,5x,4x,3x,2x,1bx,8x,7x,6x,5x,4x,3x,2x,1bx,8x,7x,6x,5x,4x,3x,2x,1bx,8x,7x,6x,5x,4x,3x,2x,1bx,8x,7x,6x,5x,4x,3x,2x,1bx,8x,7x,6x,5x,4x,3x,2x,1bx,8x,7x,6x,5x,4x,3x,2x,1bx,8x,7x,6x,5x,4x,3x,2x,1bx,8x,7x,6x,5x,4x,3x,2x,1bx,8x,7x,6x,5x,4x,3x,2x,1bx,8x,7x,6x,5x,4x,3x,2x,1bx,8x,7x,6x,5x,4x,3x,2x,1bx,8x,7x,6x,5x,4x,3x,2x,{16}1bx/Cf,,,,,,,,2-5[8:1],1,2,1,2b,,,,7-4[8:1],8,7,8,7b,,,,1-4[8:1],1,1,1,1,1b,,,8-5[8:1],8,8,8,8,8b,,,{16}3b,4,2,,6b,5,7,,3b,4,1,,6b,5,8,,{12}1b,3b,2b,8b,6b,7b,{8}1b,2x,3x,
{16}8xh[8:3]/4x,,,,,,E4,E3,E2,,1h[4:1]/5,,,,E6,E7,E8,,8h[4:1]/4,,,,E4,E3,E2,,1h[4:1]/5,,,,E6,E7,E8,,8h[4:1]/4,,,,4,3,2,,1h[4:1]/5,,,,5,6,7,,{4}8h[4:1],1h[4:1],2h[4:1],3h[4:1],{1}Cf/B7/B8/A7/A8/E8,Cf/B2/B1/A2/A1/E2/6,{2}3/4,2/4,5/6,5/7,{6}6,7,8,7,8,1,8/Ch[2:1],1,2,3b,,,{4}
7b-1[8:1],7-3[8:1]/2^5[8:1],2^7[8:1],2/6^3[8:1],6-2[8:1]/1-4[8:1],1/6,3-7[8:1]/8-5[8:1],8/3,{16}8<5[8:1],1,2,3,4/8,,,,1<6[8:1],2,3,4,5/1,,,,{4}2-7[8:1]*-8[8:1],2V48[4:1]*-5-7[4:1],2,,{16}1-5[8:1]/5,6/2,3/7,,{4}1^7[8:1]/5^3[8:1],1/5-1[8:1],1^3[8:1]/5^7[8:1],1-5[8:1]/5,1^7[8:1]/5^3[8:1],1/5-1[8:1],1/5,{12}7h[12:1],8h[12:1],7h[12:1],1b,,,2h[12:1],1h[12:1],2h[12:1],8b,,,3b,3,3,{4}1bh[4:1],8bh[4:1],6b,{16}5bxh[8:1]/3bx,2,1,,1bxh[8:1]/7bx,6,5,,6bxh[8:1]/4bx,3,2,,1bx/4bx,,,,{24}1bx/4bx,2/5,3/6,4/7,5,6,7,8,1/5,2/6,3/7,4/8,{4}1bh[4:1]/5bh[4:1],,{16}1b-6[8:1]/5b,,,,1/4,,3x-8[8:1],,,,8/3,,7,,{8}6bqq3[8:5],,,8,,1,,2,,2-7[8:1],2,6-3[8:1],6,2-7[8:1],2,6-3[8:1],6,2-5[8:1],2,6-1[8:1],6,2-5[8:1],2,6-1[8:1],6,2x,,{16}4,5,6,7,8bh[4:1],,,,5,4,3,2,{8}1b,,2/8,,3/7,,4/6,,5h[8:1]/E2,B2,5h[8:1]/E2,B2,5h[8:1]/E2,B2,5h[8:1]/E2,B2,6h[8:1]/E2,B2,6h[8:1]/E2,B2,6h[8:1]/E2,B2,6h[8:1]/E2,B2,7h[4:1],,{32}1b,2,3,,,,,,8b,7,6,,,,,,2b,3,4,,,,,,7b,6,5,,,,,,1b,2,3,,,,,,8b,7,6,,{16},,2,,,,3,4,3,4,3,4,3,4,3,,,,1b/8b,,,,6,5,6,5,6,5,6,5,6,,,,8b/1b,,,,2,3,2,3,2,3,2,3,2,,,,1b/8b,,,,7,6,7,6,7,6,7,6,7,,,,8bh[4:1]/2bh[4:1],,,,{96}B2/B8,Cf,B6/B4,{32}6bxh[32:47]/4bxh[32:47],,,,,,,{4},,,,,,3x-7[8:1]/7x-3[8:1],{1}3bqq8b[8:25]/7bbqq4b[8:25]`Cf,,,,
{4}2-7[8:1]/6,2^5[8:1]/6^1[8:1],6-3[8:1]/2,2/6,3-1[8:1]/7,3v8[8:1]/7v4[8:1],7-5[8:1]/3,3/7,{16}3,2,3,2,3,2,3,2,4,1,4,1,4,1,4,1,5,8,5,8,5,8,5,8,6,7,6,7,6,7,6,7,{32}6x/7x,5x/8x,1x/4x,2bxh[32:117]/3bxh[32:117],,,,,{1},,,{4},,,1h[4:3],,5h[4:3],,8h[4:3],,4h[4:3],,7h[1:1],,3h[2:1],,,{24}7/3,8/4,1/5,2/6,3/7,4/8,{8}1b-6[8:1]/5b-2[8:1],,,E6/E2`C,E
