&title=in den Himmel steigen
&artist=曲:RD-Sounds/歌:柏木 咲姫(CV:石見 舞菜香)
&first=0
&des=回来吧少女病 我最骄傲的信仰
&lv_5=13+
&inote_5=(147){4},,,,
{4},,,{16}5p4[32:18],3,6,4,
{4}7h[8:6],,,3qq4[32:19],2h[8:6],,,5qq8[32:19],
6h[8:6],,,1qq5[32:20],2q5[32:12],,,{16}6x/4x,,,,
{16}7h[16:3],,,5h[16:3],,,6,6,2h[16:3],,,4h[16:3],,,3,3,
8h[16:3],,,6h[16:3],,,7,7,1h[16:4],,,,6,2,5,3,
{8}4<8[32:9],,,,5>1[32:9],,,,
{16}6q3[32:7],,,,,,,,1h[16:3],,,4h[16:3],,,3qq5<2-4[16:28],,
{4}5b,,,,,,,,
{16}7h[8:1],,5,6,,3h[8:1],,5,4,,6h[8:1],,4,5,,4,7h[8:1],,3h[8:1],,5,4,,6,5-1b[8:1],,,,,,,,
{16}7hbx[8:1],,5,6h[8:1],,4,5h[8:1],,2hbx[8:1],,4,3h[8:1],,5,4h[8:1],,7hbx[8:1],,5,6h[8:1],,4,5h[8:1],,2b-5b[8:1]*-6b[8:1],,,,2b,,,,
7hbx[8:1],,5,6h[8:1],,1,8h[8:1],,2hbx[8:1],,4,3h[8:1],,8,1h[8:1],,7hbx[8:1],,5,6h[8:1],,1,8h[8:1],,4bw8b[8:1],,,,4b,,,,
{16}1,,82,,3,4,2h[8:1],,8,1,7h[8:1],,2,,31,,
4,,53,,2,1,3h[8:1],,1,2,4,3,6,5,7h[8:1],,
8,,17,,6,5,7h[8:1],,1,8,2h[8:1],,7,,86,,
15,,3,4,,6,5,,1-5[8:1],8,2,7,1,,,,
{16}6bx,,6,,65,,6,,4/7,,5,6v7-5[32:6],,47,,6,
3x,,3,,34,,3,,5/2,,4,3v2-4[32:6],,52,,3,
7x,,7,,57,,7,,4/8,,5,7-4-6[32:5],,48,,7,
3x-8[8:1],,2,,6-4-2-8<3b[8:4]/3,,7,,6b/1b,,,,,,,,
{4}Cf,,,,{16},,,,,,,,,,,,,,,,
{16}3h[16:3],,,4h[16:3],,,5qq2[8:9],,,,,,,,,,D8,,,,,,D6,,,,,,,,,,
6h[4:1]/4,,,,,,,,5h[8:1],,B4,B5,,,,,4h[16:3],,,5,,,2,,3h[4:1]/4,,,,,,,,
3-5[8:1],,,6h[16:3],,,,,7-4[8:1],,,3h[16:3],,,,,2,,2,,2,,2,3,2hx[8:1],,,6h[8:1]/4h[8:1],,,53,,
{16}8x/1x,,6,3,6,4,6,5,7,5,6,4,6,5,8,8,
7x/1x,,2,6,2,5,2,4,3,5,4,6,4,5,1,,
2x/8x,,3,6,3,5,3,4,2,4,3,5,3,4,1,1,
2x/8x,,7,3,7,4,7,5,6,4,5,3,5,4,8,,
6h[8:1]/5,,1x,,3,4,2x,,6h[8:1]/5,,1x,4,3,4,2x,,
3h[8:1]/4,,8x,,6,5,7x,,3h[8:1]/4,,8x,5,6,5,7x,,
1h[8:1]/6,,4x,,3h[16:1],8h[16:1],5x,,1h[8:1]/6,,4x,,3h[16:1],8h[16:1],5x,,
7h[16:1],8h[16:1],4x,,2h[16:1],1h[16:1],5x,,47,,36,,2-6b[32:3]/5,,1,,
{16}2b/Cf,,,7,8-4b[32:3],,2,,8b,,3,,1b/5b,,,7,8-3b[32:3],,2,,8b,,4,,2b/5b,,,3,1-5b[32:3],,7,,1b,,8,,2bq7b[32:4]/7b,,,,6bq3b[32:4]/2b,,,,6b/3b,,,,
1hb[16:3],,,4,3,5,4,,7-5b[12:1],,8,,7b,,,4,5,3,4,,2,,13,,82,,7,5,6,,45,,3,4,2,,
1x/5x,1x/5x,1hx[8:3]/5x,,3,,5,,7-3b[32:3],,,,
{16}7b/Cf,,,2,1-5b[32:3],,7,,1b,,6,,8b/4b,,,2,1-6b[32:3],,7,,1b,,5,,7b/4b,,,6,8-4b[32:3],,2,,8b,,1,,2b-6b[32:3]/6b,,,,5b-8b[32:3]/2b,,,,4b/5b,,,,
{16}75,,8,,17,,2,4,3-5-2[16:3],,6,6,,,7,,8-4-7[8:2],,3,3,,,2,,1-5[8:1],,6,,,,6,,
4,,35,,2,,8,4,6>3q7[16:4],,3,3,,,2,,1p5-2[8:2],,6,6,,,7,,8w4[8:1],,,,8,,,,
2b/6b,,3,34,,6,56,,1,1,8,8,3^8b[16:1],3,,,
{32}7b,6,5,4,,,8b,7,6,5,,,1,,,,{48}1b,2/8,3/7,6/4,5w1[220#8:1],,,,,,,,,,,,,,,,,,,,
{32}3b/8b-4b[32:3],2/7,1/6,,,,,,5b/8b,,,,,,,,
6b/1b-5b[32:3],7/2,8/3,,,,,,4b>6b[32:7]/1b,,,,,,,,
{8}8b/4b,,5w1b[8:1],,5b,,3/7,,
{16}25,,1-5[8:1],,3,4,1,,8,,7-4[32:3],8,6,8,7,,1,,3-1-6[16:3],7,4,6,3,,5w1[8:1],,,,5,,,,
{16}4/7<5[12:1],,8,,1>3[12:1]/7,,8,,1/4-8[8:1],,5,5,4,,6,,7-4[32:3],,3,3,7,,2,,1-5[8:1],,,,
6>1[16:3],,7,,8h[8:2]/6,,,,,,7,,1-5[8:1]/6,,5,5,1,,6,,3b/7b,,2,1,,7,8,,4-7[32:3]*-1[32:3],5,3,,4b,,,,
{16}8b^3b[32:3],,1,7,8b,,6,4,
1b-5b[32:3],,2,8,1b>7b[32:7],,,,
{8}1b/4b,,8w4b[8:1],,8b,,26,,
{16}74,,8-4[8:1],,6,5,8,,1,,2-6[32:3],1,3,1,2,,8,,7-5-2[16:3],2,6,3,7,,8w4[8:1],,,,8,,,,
{16}6/2>4[12:1],,1,,5qq1[16:5]/2,,1,,8h[8:2]/5,,,,,,7,,6/2-5[32:3],,5,5,2,,7,,8/4,,7,2,6,3,5,4,
{24}8<5[8:1],,,2,3,4,8b,,,3,,,
1>4[8:1],,,7,6,5,1b,,,6,,,
{16}7,3,6,4,8,2,7,3,1b,,3,2b/4b,,6,5b/7b,,
{32}1b/8hb[8:8],2,3,4,5,6,7,,1b,2,3,4,5,6,7,,1b,2,3,4,5,6,7,,1bqq7>3qq5b[32:27],2,3,4,5,6,7,,{8}1b,,,,,,,,
{16}5-2[8:1]/7,,,6,5,,7,,8-4[8:1],,7,1,8,,2,,
{32}2x/4x,35,46,57,,,,,8,,,,7x/5x,64,53,42,,,,,1,,,,3b/7b,,,,,,,,
{16}2b,4,3,6b,4,5,{48}1b,,,1,,,{16}7h[16:2],,5,6,,3,4,,
{32}2x,3x,4x,5hx[8:1],,,,,3x,4x-1[32:3],5x-8[32:2],6x,,,,,{16}5b/4b,,,,{24}7,6,5,3,2,1,
{24}7b,8,7,8,7,8,6,1,6,1,6,1,{16}5b-8[32:4],,4,,52,,,,
{32}7x/4x,63,52,41,,,,,8,,,,2x/5x,36,47,58,,,,,1,,,,3b/7b,,,,,,,,
{16}
6hx[8:1]/1x,,5,,3h[8:1]/8,,4,,6/2,,5,1-5[32:4],,62,,1,
8x,,7,,6h[8:1]/1,,5,,3/7,,4,8-4[32:4],,37,,8,
1x,,2,,3h[8:1]/8,,4,,6/2,,5,1-5[32:4],,62,,1,
6x-1[8:1],,7,,3-5-7-1>6b[8:4]/6,,2,,3b/8b,,,,,,,,
{16}
8b,,6,5,,3,4,,2/5-1[16:1],,34,,
5b/7b,,6,8,,2,4,,3,5,3,5,
1b,,3,4,,6,5,,7/4-8[16:1],,65,,
4b/2b,,3,1,,7,5,,64,,35,,
2b/1b,2b/1b,,3b/8b,,,6b/7b,,2b/3b,,4b/5b,,
7b/8b,7b/8b,,6b/1b,,,4b/7b,,5b/2b,,3b/8b,,
1hb[8:16]/6bpp3qq5[8:27],,,,
,,,,,,,,,,,,,,,,,,,,,,,,,,,,,,,
