&title=ひとりぼっちのひとりごと
&artist=40mP feat.初音ミク
&first=1.78
&des=Ragna
&wholebpm=55
&demo_seek=64.2
&demo_len=16.8
&des_5=Ragna
&lv_5=13
&inote_5=(55){16}
3-5[32:3]/7-1[32:3],,,37,,,,,
3-1[32:3]/7-5[32:3],,,37,,,,,
2-4[32:3]/6-8[32:3],,,37,,,,,
2-8[32:3]/6-4[32:3],,,15,,,,,
3-5[32:3]/7-1[32:3],,,15,,,,,
3-1[32:3]/7-5[32:3],,,15,,,,,
2-4[32:3]/6-8[32:3],,,15,,,,,
2-8[32:3]/6-4[32:3],,,37,,,,,
3V52[32:5]/7V16[32:5],,,37,,,,,
3V14[32:5]/7V58[32:5],,,26,,,,,
2V41[32:5]/6V85[32:5],,,48,,,,,
2V83[32:5]/6V47[32:5],,,37,,,,,
3-5[32:3]/7-1[32:3],48,,37,,,,,
3-1[32:3]/7-5[32:3],15,,37,,,,,
2-4[32:3]/6-8[32:3],15,,26,,,,,
2-8[32:3]/6-4[32:3],48,,15,,,,,
3-5[32:3]/7-1[32:3],26,,48,,,,,
3-1[32:3]/7-5[32:3],48,,15,,,,,
2-4[32:3]/6-8[32:3],37,,15,,,,,
2-8[32:3]/6-4[32:3],48,,37,,,,,
3-5[16:1]/7-1[16:1],,37,,3-1[16:1]/7-5[16:1],,37,,
3V52[32:5]/7V16[32:5],,,15,,,,,
2-4[16:1]/6-8[16:1],,37,,2-8[16:1]/6-4[16:1],,15,,
2V41[32:5]/6V85[32:5],,,,26,,,,
3-1[16:1]/7-5[16:1],,15,,3-5[16:1]/7-1[16:1],,15,,
3V14[32:5]/7V58[32:5],,,48,,,,,
2-8[16:1]/6-4[16:1],,37,,2-4[16:1]/6-8[16:1],,15,,
2V83[32:5]/6V47[32:5],,,,26,,,,
3V52[32:5]/7V16[32:5],48,15,26,3b/7b,,,,
1-3[32:3]/8-6[32:3],,36,45,,,,3V14[32:5]/6V85[32:5],
27,18,27,36,,,,,
4-2[32:3]/5-7[32:3],,72,18,,,,2V41[32:5]/7V58[32:5],
36,45,36,27,,,,,
7-1[32:3]/2-8[32:3],,36,45,,,,2V83[32:5]/7V16[32:5],
36,45,36,27,,,,,
3-5[32:3]/6-4[32:3],,27,18,,,,3V52[32:5]/6V47[32:5],
27,18,27,36,,,,,
1-3[16:3]/8-6[16:3],,,3V14[8:3]/6V85[8:3],,,,,
,,,,,,,4-2[16:1]/5-7[16:1],
{1}2V83[16:9]/7V16[16:9],
{32}3V14[32:5]/6,,,1-7[32:3]/8,,,45,,,,,,,,,,
6V85[32:5]/3,,,8-2[32:3]/1,,,45,,,,,,,,,,
3-1[32:3]/6,,,1-7[32:3]/7-5[32:3],,,45,,,,,,,,,,
{8}1-7[8:1],7-5[8:1],5-3[8:1],3-1[8:1],
1V72[32:5],,,,
{16}1-3[32:3]/5-7[32:3],37,26,48,,,,,
1-7[32:3]/5-3[32:3],84,26,15,,,,,
8-6[32:3]/4-2[32:3],62,37,15,,,,,
8-2[32:3]/4-6[32:3],15,37,48,,,,,
1-3[32:3]/7-5[32:3],,,48,,,,3V52[32:5]/5V36[32:5],
26,17,26,35,,,,,
8-6[32:3]/2-4[32:3],,,15,,,,6V85[32:5]/4V25[32:5],
37,28,37,64,,,,,E
