&title=幻日ミステリウム
&artist=Aqours
&first=0
&des=Sakurago
&clock_count=4
&lv_1=0
&lv_2=2
&lv_3=6
&lv_4=10+
&lv_5=13
&inote_1=
&inote_2=(151.00)
{8},,,,,,,,
{8},,,,,,,,
{8},,,,,,,,
{8},,,,,,,,
{8}1x,,,,,,,,
{8}2,,,,,,,,
{8}3,,,,,,,,
{8}4,,,,,,,,
{8}B8,,,,,,,,
{8}B7,,,,,,,,
{8}B6,,,,,,,,
{8}Chf[8:8],,,,,,,,
{8},,,,,,,,
{8}1x,,,,,,,,
{8}2,,,,,,,,
{8}3,,,,,,,,
{8}4,,,,,,,,
{8}5,,,,,,,,
{8}6,,,,,,,,
{8}7,,,,,,,,
{8}1/8,,,,,,,,
{8}2-5[8:6],,,,,,,,
{8},,,,,,,,
{8}6-1[8:6],,,,,,,,
{8},,,,,,,,
{8}4-8[8:6],,,,,,,,
{8},,,,,,,,
{8}E2,,,,,,,,
{8}E3,,,,,,,,
{8}E4,,,,,,,,
{8}E5,,,,,,,,
{8}E6,,,,,,,,
{8}E7,,,,,,,,
{8}B2/B7/Chf[8:8],,,,,,,,
{8},,,,,,,,
{8}1,,,,1,,,,
{8}2,,,,2,,,,
{8}3,,,,3,,,,
{8}4,,,,4,,,,
{8}5,,,,5,,,,
{8}6,,,,6,,,,
{8}7,,,,7,,,,
{8}1b/8b,,,,,,,,
{8}2-6[8:6],,,,,,,,
{8},,,,,,,,
{8}7-3[8:6],,,,,,,,
{8},,,,,,,,
{8}1-5[8:6],,,,,,,,
{8},,,,,,,,
{8}8-4[8:6],,,,,,,,
{8},,,,,,,,
{8}1h[8:8],,,,,,,,
{8},,,,,,,,
{8}B8,,,,,,,,
{8}B7,,,,,,,,
{8}B6,,,,,,,,
{8}Ch[8:6],,,,,,,,
{8},,,,,,,,
E
&inote_3=(151.00)
{8},,,,,,,,
{8},,,,,,,,
{8},,,,,,,,
{8},,,,,,,,
{8}1x,,1,,1,,,,
{8}2,,2,,2,,,,
{8}3,,3,,3,,,,
{8}4,,4,,4,,,,
{8}5-1[8:4],,,,,,,,
{8}2-6[8:4],,,,,,,,
{8}7-3[8:4],,,,,,,,
{8}5/1,,2/6,,3/7,,4/8,,
{8}3h[8:2]/6h[8:2],,,,,,,,
{8}1hx[8:4],,,,,,,,
{8}2h[8:4],,,,,,,,
{8}3h[8:4],,,,,,,,
{8}4h[8:4],,,,,,,,
{8}5h[8:4],,,,,,,,
{8}6h[8:4],,,,,,,,
{8}7h[8:4],,,,,,,,
{8}8h[8:4]/1h[8:4],,,,,,,,
{8}2-5[8:4],,,,,,,,
{8}6-1[8:4],,,,,,,,
{8}3-8[8:4],,,,,,,,
{8}7-4[8:4],,,,,,,,
{8}3-7[8:4]/6-2[8:4],,,,,,,,
{8}4x/5x,,,,,,,,
{8}E2,,,,E3,,,,
{8}E4,,,,E5,,,,
{8}E6,,,,E7,,,,
{8}E8,,,,E1,,,,
{8}B1/B5,,,,B2/B6,,,,
{8}B3/B7,,,,B4/B8,,,,
{8}Chf[8:8],,,,,,,,
{8},,,,,,,,
{8}1,,1,,1,,,,
{8}2,,2,,2,,,,
{8}3,,3,,3,,,,
{8}4,,4,,4/5,,,,
{8}5,,5,,5,,,,
{8}6,,6,,6,,,,
{8}7,,7,,7,,,,
{8}1bh[8:4]/8bh[8:4],,,,,,,,
{8}4>1[8:4],,,,,,,,
{8}8<5[8:4],,,,,,,,
{8}4-1[8:4],,,,,,,,
{8}8-5[8:4],,,,,,,,
{8}1,,1,,2,,2,,
{8}3,,3,,4,,4,,
{8}4h[8:4]/5h[8:4],,,,,,,,
{8}2h[8:4]/7h[8:4],,,,,,,,
{8}8,,8,,1,,1,,
{8}1b/8b,,,,,,,,
{8}B1/B2,,,,B3/B4,,,,
{8}B5/B6,,,,B7/B8,,,,
{8}E3/E7,,,,E1/E5,,,,
{8}Ch[8:6],,,,,,,,
{8},,,,,,,,
E
&inote_4=(151.00)
{8},,,,,,,,
{8},,,,,,,,
{8},,,,,,,,
{8},,,,,,,,
{8}1h[8:2],,5h[8:2],,Cf,,,,
{8}2h[8:2],,6h[8:2],,Cf,,,,
{8}3h[8:2],,7h[8:2],,Cf,,,,
{8}4h[8:2],,8V64[8:3],,Cf,,,,
{8}1-4[8:2],,,,8-5[8:2],,,,
{8}2-5[8:2],,,,7-4[8:2],,,,
{8}1-5[8:2],,,,8,,,,
{8}1/2,,3/4,,5/6,,7/8,,
{8}1qq6[8:5]/2pp5[8:5],,1b/2b,,,,,,
{8}7x,,,1,{16}1,,,5,,,2,,
{8}6,,,3,{16}3,,,5,,,4,,
{8}7,,,2,{16}2,,,6,,,4,,
{16}7,,,6,,,5,,2,,,3,,,4,,
{16}5h[8:2]/7h[8:2],,,,,,,,3/6,,,2,,,1,,
{16}8h[8:2],,,,7h[8:2],,,,6h[8:2],,,,5h[8:2],,,,
{16}4-1[8:2],,,,,,5x,,5x-8[8:2],,,,,,4x,,
{16}4x>1[8:2],,,,,,5x,,5x<8[8:2],,,,3x,,,,
{8}1x,,,2,{16}2,,5,,3,,7,,
{16}1h[8:2],,,,2h[8:2],,,,3h[8:2],,,,4h[8:2],,,,
{8}5qq8>3[8:7],,,,,,,,
{8},,,8,1,6,2,5,
{8}3p1[8:4],,,,8,8,7,7,
{8}2h[8:4]/6h[8:4],,,,,,,,
{8}4bxV28b[8:8]/8bx-6v5b[8:8],,,,,,,,
{8},,,,Cf,,,,
{8}2bx>6-2b[8:8]/6bx<2-6b[8:8],,,,,,,,
{8},,,,Cf,,,,
{8}4bx/8bxq5<4b[8:8],,,,,,,,
{8},,,,Cf,,,,
{16}E8/B8/B1/E2/B2/B3/E4/B4/B5/E6/C,,,,,,E2/B2/E3/E8/B7/E7,,,,,,E1/E8/B8/B1/E2/B2/Chf[8:2]/B6/E5/E4,,,,
{8},,,,{16}2,,,2,,,2,,
{8}3/8-4[8:1],,,2x,{16}1/5,,,3/7,,,1/5,,
{8}5/1-5[8:1],,,7x,{16}8/4,,,6/2,,,4/8,,
{8}4/8<5[8:2],,5>2[8:2],,2<7[8:2],,7<4[8:2],,
{8}4>6[8:4]*p6[8:4],,,,,,,,
{8}2h[8:2]/8h[8:2],,,1,6,6,3,3,
{8}7h[8:2],,5h[8:2],,4h[8:2],,2>5-1<6[8:6],,
{8}7hx[8:4],,,,,,,,
{8}1b/8b,,2b/3b,,4b/5b,,6b/7b,,
{8}1x-3[8:1]/8x-4[8:1],,,,3x-7[8:1]/4x-6[8:1],,,,
{8}7x-1[8:1]/6x-2[8:1],,,,2x>5[8:1]/1x<6[8:1],,,,
{8}3bx/7bx,,,,2h[8:1]/5h[8:1],,4h[8:1]/7h[8:1],,
{8}2/8-6[8:1],,3,,4-2[8:1]/5,,6,,
{8}1h[8:2]/5h[8:2],,,,2-5[8:1],,1,,
{8}7-4[8:1],,8,,3>8[8:1],,5s1s5[8:6],,
{8}2hx[8:4],,,,,,,,
{8}1b/8b,,2b/3b,,4b/5b,,6b/7b,,
{8}1x>4[8:1]/8xq5[8:1],,,,5x<8[8:1]/4xq1[8:1],,,,
{8}B2/B7/B3/B6/Cf,,,,,,,,
{8}2b-5[8:1],,8,,6-1[8:1],,4,,
{8}3b-8[8:1],,5,,7-4[8:1],,1,,
{8}2b-7b[8:1],,6b-3b[8:1],,1b-4b[8:1],,5b<4b[8:6],,
{8},,,,,,,,
{8},,,,,,,,
E
&inote_5=(151.00)
{8},,,,,,,,
{8},,,,,,,,
{8}3h[8:14]/7hb[8:14],,,,,,,,
{8},,,,,,,,
{8}1xV35[8:2]/Cf,,,,{16}6,,,6,,,7,,
{8}8V64[8:2]/4,,,,{16}3,,,3,,,2,,
{8}1V38[8:2]/5,,,,{16}6,,,6,,,7,,
{8}8V63[8:2]/4,,,,{16}1bxw5[8:1],,,,,,,,
{8}2/7,5,4,5,{16}3/6,,3,4,,4,5,,
{8}6/4,3,5,3,{16}4/7,,7,6,,6,5,,
{8}4/6,7,2,4,{16}1h[8:1]/5h[8:1],,,4h[8:1]/7h[8:1],,,2/6,,
{12}1x,4,3,8x,6,7,2x,4,3,7x,5,6,
{8}4xV25[8:4],,Ch[8:6],,,,,,
{8}E1f/B1/B8,,,,2/6h[8:4],,,,
{16}4,,,4,,,4,,3-1[8:1]/7,,,,,,6,,
{8}6p3[8:4],,,,1,,,,
{16}2/5,,,3,,,4,,7/5,,,6,,,5,,
{16}4pp3[8:4]/6,,,,,,,,8,,,7,,,6,,
{16}5h[8:2],,,,1h[8:2],,,,7h[8:2],,,,3h[8:2],,,,
{16}5-8[8:2],,,,,,2,3,4-1[8:2],,,,,,7,6,
{16}5<8[8:2],,,,,,1,2,3-1[8:1]*-5[8:1],,,,,,,,
{16}6hx[8:2],,,,1,,5,,2,,6,,3,,8,,
{16}4h[8:2],,,,7h[8:2],,,,1h[8:2],,,,5h[8:2],,,,
{16}2q3<7[8:8],,,,8h[8:2],,,,,,,,E5,,,,
{16}C,,,,E1,,,,7/8,,1,,2/4,,3,,
{8}4-2[8:1]/6-8[8:1],,,,{16}1-5[8:1],,,6,,,7,,
{8}4bh[8:6]/8bh[8:6],,,,,,,,
{16}B2/B3/E3/B6/B7/E7/Cf,,,,
5x,4,5,,
3h[16:3],,6,6,
,2,1,2,
{16}4,3,5,4,
6,,5/7,,
4/8-4[8:1]b,,3,3,
,,,,
{16}B1/B2/E2/B5/B6/E6/Cf,,,,7x,8,7,8,6h[16:3],,3,3,,,5,4,
{8}6/3,2,3p6q3[8:3]/8,,6,,,,
{16}B8/B1/E1/B4/B5/E5/Cf,,,,3x,,5,4,6h[16:3],,2,2,,,7,,
{16}1,1,,6,2,8,4,,{12}3x/7x,2x/6x,1x/5x,4x/8x,,,
{16}1b/2b,,,4/6,,,7b/8b,,,3/5,,,2b/6b,,3b/7b,,
{8}4b/8bh[8:4],,,,1w5b[8:1],,1b,,
{8}3-8[8:1]/7-4[8:1],,3/7,,{16}1>4[8:1]/5,,,7,1,,8,,
{8}5-2[8:1]/1-6[8:1],,1/5,,{16}5<8[8:1]/1,,,3,5,,4,,
{8}5b-2[8:1],6,7b-4[8:1],8,1b-6[8:1],2,3bqq8[8:3],,
{8}7bxqq4[8:3],,,,1-3[8:1]*-7[8:1],,1b,,
{8}4/6,5,3/7,{16}4,6,{8}2,4/5,2/7,3/6,
{8}8<6[8:1]/1p5[8:1],,8/1,,1>3[8:1]/8q4[8:1],,1/8,,
{16}2/5,,7,8,7h[8:1],,2,1,2h[8:1],,7,8,6h[8:1],,2,1,
{8}3h[8:1],7,2-5[8:1],5,6-2[8:1],7,4>1[8:1]*<7[8:1],3,
{8}4b,,5-2[8:1]/6-1[8:1],4/7,5/6,,4-7[8:1]/3-8[8:1],2/5,
{8}3/4,,1b<6[8:1]/6,2,1b>4[8:1]/3,,1b-5-7-3[8:3]/5,,
{8}B2/B3/E3f,,,8x,1/5,2/6,3/7,4/8,
{8}1<6[8:1]/5>2[8:1],,1/5,,1>4[8:1]/5<8[8:1],,1p8[8:2]/5,,
{8}B4/B5/C,,,,2h[8:1]/6h[8:1],,4/8-4[8:1],,
{8}1-6[8:1]/8,,7-4[8:1]/1,,2q6[8:1]/7,,2/5,,
{16}4/7,,6,5,6h[8:1],,3,4,3h[8:1],,6,5,7h[8:1],,3,4,
{8}1h[8:1],6,3-8[8:1],8,7-3[8:1],6,1>4[8:1]*<6[8:1],2,
{8}1b,,7h[8:2],5,2h[8:2],4,8-3[8:1]*-4[8:1],,
{8}8b`Cf,,,,,,,,
{8}1x/6x-1[8:1],2,3,4,{16}5-1[8:1]/8x,,7,7,,6,6,,
{8}5x/8x>3[8:1],6,7,8,{16}1xp5[8:1]/4x,,3,3,,2,2,,
{16}1x,7,3,5,2,8,4,6,{24}2x,3x,4x,{32}8x,7,6,5,4,3,2,1,{8}8bx/Cf,
{8},3/7,4-2<1[8:2]/8<7qq5[8:2],1/5,,,,,
{8},,,,,,,,
E
