&title=Distorted Fate
&artist=sakuzyo
&first=0
&des=distortED KiSMat
&wholebpm=100
&lv_5=13+
&inote_5=(100)
{1},
{64}
8,7V52[64:24]/1,26,53,4V61[64:20],,,,,,,,,,,,
{8}
,,,,
{48}
1,2,3,4,5,6,7,8,1,2,3,4,
{12}5-1[8:4]/6,,,,,,6-8[8:3],,,,,,2-4[8:2]*-4[8:2],,,,,,
{24}1h[12:1],,3h[12:1],,4h[12:1],,8w4[12:1],,6h[12:1],,5,,
{12}8b,,4,5>2[12:1],3,8,5<8[12:1],7,4,5,1,6,
2^5[12:1]/6,{24}7,5,8,,2^7[12:1],,6,,8,,4,,3,,6,,45,,5,6,7,8,
{24}
12,,3,4,2,4,3h[12:1],,5h[12:1],,7,,78,,7,5,7,1,7h[12:1],,5h[12:1],,3,,4^1[12:1]/3,,6,5,8,5,6,,7,,2,,
8^5[12:1]/1,,2,1,4,1,2,,3,,4,,
6h[24:3]/5,,5,,7,5,6h[24:3],,5,,6,3,4h[24:3],,3,,4,3,5h[24:3],,2,,5,4,6,4,7,5,
8,8,3,5,2,4,1,1,5s1[10:1]*z1[10:1],4,7,3,
8,8,,,,,,,
{32}1h[32:3]/7h[32:3],,,,6h[32:3]/5h[64:5],,,4,3h[32:3]/8h[32:3],,,,
1h[32:3]/5h[32:3],,,,7h[32:3]/6h[32:3],,,,3h[32:3]/5h[64:5],,,6,
1h[32:3]/7h[32:3],,,,{64}26,35,4,,,,,,
{32}6,7,8,1,
{32}3,2,1,8,4,5,6,7,
{32}1,2,3,4,
{40}8z4[6:1],7,6,5,4,
{40}8,1,2,3,4,
{8}8b/5b,,{16}3-8[8:1]/7h[8:4],,,,,,{64},,,,,,,,{8}1b>5[16:2]*<5[16:2],,,,
{16}3/4h[16:2],,2,3,4h[8:1]/5,,6,6,2/4h[8:1],,2,3,45,6,3,3,
{16}6/5h[16:2],,7,6,5h[8:1]/4,,3,3,
{32}53,6,7,8,1,2,3,4,
{16}25,1,8,7,
{16}6-8[16:1]/5,1h[16:1],5h[16:1],2,3h[16:2]/6,,8,8,7h[16:2]/5,,1,1,2h[8:1]/4,,7,7,6h[8:1]/5,,2,2,3h[8:1]/4,,
6,6,5h[8:1]/4,,2,2,{16}6h[16:1]/3,5,5h[16:1]/4,3,2b/6b,,
{24}
3,8,2,1h[8:1],,,3,5,2,4h[8:1],,,3,4,3,7,6,7,2,1,2,3/7h[8:1],,,5,5,6,1h[8:1],,,
6,6,3,5h[8:1],,,4,4,5,2,2,4,6,6,5,8^5[12:1],,,2,1,3,8^3[12:1],,,
1,5,5,8-4[12:1],,,7,3,3,8,,,2,5,5,
8h[48:3],,1h[48:3]/6h[48:3],,25,,
1h[48:3],,2h[48:3]/8h[48:3],,37,,
{48}7,6,5,4,3,2,{32}1,8,72,63,{8}5h[8:1]/4h[8:1],,
(200)
{12}3-6[8:1],,6,6p2[8:1],,2,2-5[8:1],,8,8,,7,
{12}
7,6,5,3,4,5,6,5,4,2,3,4,
{12}5-2[8:1],,2,2q7[8:1],,7,7-4[8:1],,1,1,,3,
{12}
3,2,1,7,8,1,2,1,8,6,7,8,
{12}
1-6[8:1],,6,6q3[8:1],,3,3-8[8:1],,8,8q5[8:1],,5,5-2[8:1],,2,2q7[8:1],,
7,7,,1,1,,8,
{12}8,1,2,3/7,6,5,4/1,2,3,4/5,6,7,
{12}8,2,6,1,7,3,84,73,62,{8}5b/1b,,
{16}3,7,2,8,3,7,4,6,3,7,1,8,3,7,4,6,3h[4:1],,,,1,8,7,6,5h[4:1]/4,,,,8,1,2,3,
{16}6,2,7,1,6,2,5,3,6,2,8,1,6,2,5,3,6h[4:1],,,,8,1,2,3,4h[4:1]/5,,,,8>3[8:1],7,6,5,
{16}8b,,,,6,5,6,5,7,8,6,1,5-8[8:1],2,4,3,5b,,,,2,1,2,1,3,4,2,5,1-4[8:1],6,8,7,1b,,
,,6,5,6,5,
7,,68,,18,,31,,4>8[4:1],,,,8-4[8:1],,6v3[8:1],,5v8[8:1],,,,
,,,,
(100){4}6b<4[4:3],,,,7h[4:1],,3h[4:1]/5h[4:1],,
{24}4,,45,,6,5,6,,65,,4,,
{24}35,,3,5,3,,35,,2,,8,,
{24}6/1,,2,6,3,,4/6,,5-1[12:1],3,6,,
{24}1,,4-8[12:1],,2,,7,,5,,6,,
{24}1<6[12:1]/5,,2/6-4[12:1],,7/3,,5,,3,,1,,
{24}8^5[12:1]/4,,5-3[12:1]/1,,2/6,,4,,2,,8,,
{24}5>2[12:1]/1,,6/2-8[12:1],,3/7,,1,,7,,5,,
{24}4>2[16:1]/8,,6/2^7[12:1],,3/7<5[16:1],,4,,,,,,
{24}
1,,8v5[16:1],2,7-4[16:1],4,6,,8,,7,,
3,,1v4[16:1],7,2-5[16:1],5,3,,1,,2,,6,,
8v3[16:1],1,7V51[8:1],3,6,,
8,,7,,
{18}
2,2,8,3,3,4,
45,36,27,
(150){8}1s5[8:5]/8z4[8:5],,,,,,,,
{256}1s5[8:5],8z4[8:5]*z4[8:5],{128},{64},{32},{16},{8},,,,,,,
{256}1s5[8:5],8z4[8:5],{128},{64},{32},{16},{8},,,,,,,
{12}
3,4,2,
6,5,7,
{16}
4,5,3,6,2,8z4[10.17#96:1],1s5[10.35#96:1],7h[16:49],
{1}
2b-6[1:3],,,
{8}
,,,,1b/8b,,,,
{24}2,1,2,8,1,8,{32}2,3,4,5,6,7,8,1,2b-7[8:1]/6b-3[8:1],37,48,,,,,,
{8}26,,
{12}47,6,5,6<1[8:1]/2^5[8:1],1,7,2/6-2[8:1],,,,,,
{24}7,8,7,1,8,1,{32}7,6,5,4,3,2,1,8,7b-4[8:1]/3b-8[8:1],62,51,,,,,,
{8}37,,
{12}15,2,6,3^8[8:1]/8^5[8:1],4,7,8-4[12:1]/3,,,,,,
{24}3,4,3,5,4,5,{32}2,1,8,7,6,5,4,3,2b-5[8:1]/6b-1[8:1],51,48,,,,,,
{8}26,,
{12}64,5,3,2-5[8:1]/6-1[8:1],7,1,2q7[8:1]/6,,,,,,
{24}
3,4,5,6,7,8,1/6,5,4,3,2,1,8/3,4,5,6,7,8,
{32}15,26,37,48,1,2,3,4,{8}5<1[8:1]/1>5[8:1],,1p8[3:1]/5p4[3:1],,15,,
,,
{24}2,8,1,
7,2,6,
{32}3,4,5,6,7,8,1,2,3b-8[8:1]/7bv4[8:1],84,15,,,,,,
{8}37,,{12}16,2,5,3^8[8:1]/4^7[8:1],2,5,4z8[8:1]/3,,,,,,
{24}6,4,7,
3,8,2,
{32}7,6,5,4,3,2,1,8,7b-2[8:1]/3bv6[8:1],26,15,,,,,,
{8}37,,{12}25,3,6,3v8[12:1]/7v4[12:1],2,8,
{6}37,1h[128:1]/5h[128:1],4h[128:1]/8h[128:1],
{30}3b,4,3,4,,{24}1b,,8,,4,,4,,{30}6b,5,6,5,,{24}8b,,1,,8,,8,,
{30}2b,1,2,1,,{24}4b,,5,,3,,3,,
{24}6,5,
7,4,6,3,
5,2,4,1/5,
26,37,
{6}4/8-4[8:4],,,
8<8[8:5]*>8[8:5],,,
,,,
{8}1/7,56,4>8[8:1]/7,38,
{24}84,7,6,{8}5-1[8:1],2,3^8[8:1],4,
{24}73,6,5,{8}4-8[8:1],1,2,3,5/6,7h[8:1]/4,
{32}1,2,3,4,{8}56,3/7h[8:1],{32}8,1,2,3,
{8}4/7,1/6,{32}8,17,26,35,{16}4,,3,,
{24}6,7,8,{16}1^4[12:1]/2,,73,,{24}1/8,7,6,{16}5,,3,8,
{16}2,6,8^5[8:1],7,1,,{24}48,3,2,{16}1,,86,,6,5,7,4^1[12:1],8,,{24}1,8,7,{16}6,,5^8[12:1],,
{24}8,1,2,{16}3,,31,,
{24}6,5,6,{16}4,7,3,6,{24}2,5,3,
{32}4-8[12:1],5,6,7,8,1,2,3,
{16}4b/5b,,6,6,1,,{24}4,5,6,
{16}3/7-4[8:1],,8,,17,,3,3,1,,
{24}4,3,2,
{16}1^4[12:1]/7,,2/5,,
{32}5/1,6,7,8,
{16}1^6[12:1]/5,,37,,
{32}15,4,3,2,
{16}15,,26,,3,3,5,5,1,1,
{32}7,6,5,4,3,2,1,8,7,6,5,4,
{12}1-5[12:1],2,2,
7-4[12:1],6,6,
{32}1b-5[12:1]/7,2,3,,3,,,,
{12}7-4[12:1],6,6,
2-5[12:1],3,3,
{32}8b-4[12:1]/2,7,6,,6,,,,
{12}2-6[12:1],1,1,
8^5[12:1],1,1,
{32}4b-8[12:1]/8,3,2,,2,,,,
{12}6-2[12:1],5,5,
4^1[12:1],5,5,
{32}8b/4,7,6,,6,,,,
{16}1b,7,8,6,5,7,{24}3,4,3,{16}5,5,3,3,
{16}8b,2,6,5,7,1,{24}4,3,4,{16}1,1,7,7,
{32}3b,4,5,6,7,8,1,2,{16}4,4,{32}1,8,7,6,5,4,3,2,{16}6,6,
{32}1b,5,1,5,
1,5,1,5,
1,5,1,5,
{32}2b,3,4,5,
6-2[16:1],7,8,1,
25,36,4z8[32:32]/7,5s1[32:31]/8,
{4}1b,,,,,
{64},,,,,,,,,,,,,1s5[4:5]/8z4[4:5],27,36,{4}45,,,,,,
{8},5,3,2,,3,2,3,4,5,6-2[8:1],,,
