&title=幸福刑
&artist=25時、ナイトコードで。×MEIKO
&first=0
&des=yorushio
&lv_5=13
&des_5=yorushio
&inote_5=
(140){4},{12},,,,,,8b/4b,3,2,
1b/5b,6,7,8b/4b,3,2,{4}5b/1bw5[12:1],1b/Cf,
7<4[8:1],1,{8}2,3,,6/3
||这是一个标记~
,
5,4,{4}6/1-5[8:1],1,7
||这是一个标记~
,
2>5[8:1],8,{8}7,6,,6/3,
4,5,{4}3/8-4[8:1]
||这是一个标记~
,8,{8}7h[4:1]
||这是一个标记~
,
||这是一个标记~
,
3,{24}5,4,5,{8}3,2,6,{24}1/7,,
||这是一个标记~
,{8},7<4[16:1],
8,7
||这是一个标记~
,2>5[16:1],{16}1,
||这是一个标记~
,{4}8/2,1h[4:1]
||这是一个标记~
,
{8}6,{24}4,5,4,{8}6
||这是一个标记~
,7,3,8/2,,3>8[0.4286##0.1071],
4,3,{12}6,
||这是一个标记~
,,5/4,6/3,7<7[0.1429##6.4286],8b/Cf,{1},{4},,,{6},{4}Cfh[4:7]
||这是一个标记~
,
,,,,,,
||这是一个标记~
,
2v3>2v4[2:3]/7v6<7v5[2:3],
{8},,,,,,,,,,,,,
||这是一个标记~
,
{4}4pp4qq4[2:3],
{8},,,A6,,,{4}A4,
{8},,,,,
||这是一个标记~
,{4}E5/1>4[4:1],
B5,B6/E7,,E5/8<5[4:1],
B4,B3/E3,B2,5h[4:1]/4>1[8:1],
,4h[4:1]/5<8[8:1],,6pp3>6[2:1],
5,4,3,6-2[6:1]/3-7[6:1],
6/3,1/C,8/C,B8/B2,
B8/B2,{8}6,4,2,8,{4}4h[2:1]/5pp3[4:1],
{2}5,8z4[2:1]/1s5[2:1]
||这是一个标记~
,
{4},
||这是一个标记~
,{8}3,6,4
||这是一个标记~
,5,
{4}4v2<6[4:1],4b,{8}
||这是一个标记~
,1/5h[8:1],{4}2,
{8}3,4/6h[8:1],{4}1,{8}3,1h[8:1],6<3[4:1]*<3[4:1],4,
5,4,{4}5,{8}1/8,2,{4}3h[4:1],
{8},2/5,1,2,3,4,5/3bh[8:1],5,
5/2bh[8:1],5,5/1bh[8:1],5,5/8bh[8:1],5,{24}1x,2x,{6}3x,
{4},,,{16},,5,4,
6,3,7,2,8,1,8,1,{4}8,{16}8/1b-5[8:1],
||这是一个标记~
,,,1b>4[8:1],
||这是一个标记~
,,,{4}1b<6[8:1],1b>4[8:1]*-4[8:1],1b<6[8:1]*-6[8:1],
1bw5b[8:1],1b/Cf,{8},,6/8-4[8:1],7,
{4}8/2,{8}3/1-5[8:1],2,{4}1/7,{8}7/1>4[8:1],{16}2,
||这是一个标记~
,
{8}1/8<5[8:1],7,8/2-5[8:1],3,{4}2,{8}4-8[8:1]/3-8[8:1],5/2,
{4}4b/3b/C,{8}5-1[8:1]/6-1[8:1],4/7,{4}5b/6b/C,{8}5/1,6/2,
{4}C/8V64[4:1]*V24[4:1],{8},,,,4/6-1[8:1],5,
{4}6/4,{8}5/3-8[8:1],4,3/5,6,{12}5/4,4,4,
6/3,6,6,2/7,2,2
||这是一个标记~
,{4}8b/1b,{12}1x/6x,2x,3x,
4x/8x,5x,6x,7x/3x,2x,1x
||这是一个标记~
,8x/4x,5x,6x,7x/3x
||这是一个标记~
,2,1,
8x/4x,5,6,7x/3x,6,5,4x/8x,3
||这是一个标记~
,2,5/1
||这是一个标记~
,2,3,
4/8,5,6,7/3,6,5,4/8,3,2,5b/1b,4,3,
2b/6b,1,8,7b/3b,6,5,4b/8b,3,2,1
||这是一个标记~
,8,7,
{4}6q1[4:1],3,4,{12}2,3,4,
{4}5-2>5[4:1],,,6h[4:1]/2>5[8:1],
,2h[4:1]/6<1[8:1],,3b,
4x,5,A6,A7/A8/D8
||这是一个标记~
,
E7/B6/B5/E5,B4/B3/E3,A1/D2/A2/E1,6/1>3[4:1],
3<5[4:1],5<7[4:1],7>1[4:1],1>5[4:1],
{3}5<5[4:1],
||这是一个标记~
,{24},,{8}7/5-1[8:1],6,
{4}5/3,{8}2/4-8[8:1],3,{4}4/6,{12}3/5<8[0.4286##0.2143],{24},6,,,{8}5/4>1[8:1],
3,4/6-1[8:1],7,{4}6,{8}8-4[8:1]/7-4[8:1],1/6,
{4}8/7/C,{8}1-5[8:1]/2-5[8:1],8/3,{4}1/2/C,{8}5/4-1[8:1],3,
{4}6-2-8-6[4:1]*-2-4-6[4:1],{8},,,,1/7-4[8:1],8,
{4}7/1,{8}8/2-5[8:1],1,2/8,7,{12}8/1,1,1,
7/2,7,7,3/6,3,3,{4}5b/4b,{8}8/1-5[8:1]
||这是一个标记~
,8,
{4}1>4[8:1],{8}1<6[8:1],8,{4}1>4[8:1]*-4[8:1],1<6[8:1]*-6[8:1],
1w5b[8:1],1b/C,{8},,6/8-4[8:1],7,
{4}8/2,{8}3/1-5[8:1],2,{4}1/7,{8}7/1>4[8:1],2,
1/8<5[8:1],7,8/2-7[8:1],3,{4}2,{8}3>8[8:1]/4<7[8:1],5/2,
{4}3b/4b,{8}6<1[8:1]/5>2[8:1],4/7,{4}5b/6b,3x/2x-7[8:1]
||这是一个标记~
,
2,8V24[8:1]/4V68[8:1],{16},,,,4xh[16:3]/3>8[8:1],,,3,
{8}4,4,{16}7xh[16:3]/8>3[8:1],,,8,{8}7,7,7-3[8:1],6,
5-1[8:1],4,{4}3q6b[4:1],,8<4q8[2:1],
{2}
||这是一个标记~
,{4}1>5[2:1]*q5[2:1],
||这是一个标记~
,
{8},,,E3,{2}E7,
E
