&title=空の箱 (Vo.河原木桃香)
&artist=ダイヤモンドダスト
&first=0.01
&des=Holinality Dust
&clock_count=4
&lv_5=12
&inote_5=(135)
{1}
,
{8}
,,,,B6,B5,B4,B3,
6hx[4:1],,1>4[4:1],1,,,5<8[4:1],5,
,,2>5[4:1],2,,6,7,8,
{16}
,,7,1,8-5[4:1],,,2,
8,,3,,3,,3h[16:7],,
{8}
,,,5,,4h[4:1],,7,
7h[4:1],,4>1[4:1],4,,,7<4[4:1],7,
,,2<7[4:1],2,,6,5,4h[4:3],
,,,2h[4:1],,,,7h[4:2],
5h[8:3],,,,,,,4,
{16}
5/3,,6,4,,,5h[8:1],,
3,,2/5,,6,,7/4,,
2-5[8:1],,8-4[8:1],,2<6[4:1],,8,,
2,,,,,,5,,
6/4,,3,5h[16:3],,,2,,
5-7[8:1],,2-4[8:1],,5-1[8:2],,2,,
5,,,,,,3,,
2/8,,8,,1/7,,1,,
8h[4:1],,,,2>5[8:2],,2,,
,,,,8<5[8:2],,8,,
,,,3h[16:1],,,6-1[8:1],,
,,6/2-5[8:1],,3,,2/8,,
,,,,6qq7[16:12]b,,2qq3[16:10]b,,
,,,,,,,,
,,,,,,,,
,,1/7h[4:1],,,,2,,
2-4-6[8:2],,,,6-8-2[8:2],,,,
C,,,,4,,5-3-1[8:2],,
,,1-7-5[8:2],,,,C,,
,,1,,1,,1/7h[16:7],,
,,,,,,4h[8:3],,
,,,,6,,,,
3/1,,,4/5,,,6/8,,
7/2,,,,,,1,,
7-5[8:1],,,,1-3[8:1]/7,,,,
4-8[8:1]/1,,,,4,,3x>8[8:1],,
,,7<4[8:1]/3,,,,7,,
,,2/4,,3,,4/6h[4:1],,
,,1,,2/8,,1-5[8:1]/7,,
7b-4[8:1],,1b>8[8:3]b,,7b,,1b,,
,,,,,,6,1,
8h[16:3],,,2h[16:3],,,1b<6[8:1],,
{16}
,,1bhx[8:2],,,,,5,
3h[16:3],,,6h[16:3],,,5b>2[8:1],,
,,5bhx[8:2],,,,,7,
2h[16:3],,,8h[16:3],,,1b-4[8:1],,
,,6h[4:1]/1b,,,,,3,
5h[16:3],,,3h[16:3],,,5b-8[8:1],,
,,5b/2,,,,1,,
2/8,,7,,6/4,,3h[8:4],,
,,5h[8:2],,,,,,
,,4h[8:2]/6,,,,6,,
2/5,,,3,,,4/6,,
7/4,,,6,,,5/3,,
2pp1[4:2],,,,,,6pp5[4:2],,
6x,,,,,,,,
,,,,,,6h[8:1],,
1h[16:3],,,7h[16:3],,,8b>3[8:1],,
{16}
,,8bh[8:2],,,,,4,
6h[16:3],,,3h[16:3],,,4b<7[8:1],,
,,4bh[8:2],,,,,2,
7h[16:3],,,1h[16:3],,,8b-5[8:1],,
,,3h[4:1]/8b,,,,,6,
4h[16:3],,,6h[16:3],,,4b-1[8:1],,
,,4b/7,,,,8,,
7/1,,2,,3/5,,6h[8:4],,
,,4h[8:2],,,,,,
,,3/5,,5,,3>8[8:2]/5,,
,,3/6h[4:1],,,,,,
,,2/8,,8,,2>5[8:2]/8,,
,,2/7h[4:1],,,,,,
6-4[8:1],,1-5[8:1],,6,,1b>8[4:3]b,,
,,1bx,,1bhx[16:10],,,,
,,,,,,,,
,,,,,,,,
,,,,,,,,
