&title=擬翼の偶像
&artist=霜月はるか
&first=0
&des=羽ノ亡キ蝶
&des_5=
&lv_5=13+
&inote_5=(168)
{4},{8},,,,,,,,,,,,,,3/5,,,4,{4}6xqq5[4:3],B1/B2,,,{2}3h[4:1],
{8}3/5,,,4,{4}6x<4[4:3],{64}B5,E5,{4},,{16},,,{32},{2}2h[4:1],
{8}3/5,,,4,{4}6xqq5[4:3],B1/B2,,,{2}3h[4:1],
{8}3/5,,,4,
{4}6x<4b[4:3],{64}B5,E5,{4},,{16},,,{32},{4}2h[4:1],6h[4:1],4bx,5/3,4/6,{8}3/5,2,,4/3,{16}1h[4:1],{32},,,,E7,B6,,,,,{8}2,{4}3/4,
{8}7,7,3xh[8:1],B5,3xh[8:1],B1,3xh[8:1],7,
,7h[8:1],5h[8:1],6x,2h[8:1],4h[8:1],3x,3x,
6,4,6xh[8:1],B4,6xh[8:1],B8,6xh[8:1],2,
,5,{4}6b/2bh[4:1],{32}B6,E7,,,{8}1,{4}1,
5/3,{24}A2,D3,A3,D4,,,A7,D7,A6,D6,,,{4}1bs5[4:1],
{8},8,{4}8h[2:1],{24}E7,E6,E5,E4,E3,,,,,8,,,{4}7x/5x-3[8:1],
7-5[8:1],2h[4:1],{8}4,4-6[8:1],
,1,{4}1,{8}7,7h[8:1],5,5,
{4}4/6qq5[4:1],2,{8}1h[4:1],,,5,
{4}3/6h[8:1],{8}5,4/7h[8:1],,2,{24}E7,B6,B5,E5,,,{4}1b,
{8}3x/4x,2,3x/4x,2,3-5[8:1],5-2[8:1],
,8,{16}8h[4:1],{32},,,,E3,B3,,,,,{8}7,{4}7,
1b,{8}3x/4x,2,3x/4x,2,3V52[4:1],4,
,8,{4}8h[8:1],{16}E4,B3,B2,E2,E7,B6,B5,E5,
{4}1bx-4[8:1],6-1[8:1],3h[4:1],{8}8,7<4[8:1],
,2,{4}2,{8}5,5h[8:1],3,3,
{4}4/2qq1[4:1],5,{8}7h[4:1],,,4,
{4}6/3h[8:1],{8}4,5/2h[8:1],,7,{24}E3,B3,B4,E5,,,{4}8b,
{8}6x/5x,7,6x/5x,7,6-3[8:1],3-6[8:1],
,1,{16}1h[4:1],{32},,,,E7,B6,,,,,{8}2,{4}2,
8b,{8}6x/5x,7,6x/5x,7,6-3-6[4:1],3,
,1,{12}1h[4:1],{24},,D7,D8,D1,D2,D3,D4,,,{8}5x,6x,
{1}3bx>7[4:5]`7bx<7[2:5],
{2},,,,4h[2:1],
5h[2:1],
{1}3bqq5[8:5],
{2}6bpp4b[8:5],E3/B2/B3,
{4}3b-5[8:1],{8}3/6-2b[8:1],7b,{32},,,,,,1bx,8bxp4[32:7],{4}7bxv5b[16:3],
,,5b/1h[4:1],{24}3,4,5,6,7,8,
{4}1b/2b>5[8:1],{8}6/2,7p3[8:1],,7/1,{4}2>5[8:1],
2/1<6[8:1],1/2qq3[4:1],2/5,6qq7[4:1],
6/2,{8}1,1,2/4,4,3/5,6,
{4}5-1[8:1]/7-5[8:1],7/5-3[8:1],{8}2,{32}E2,E1,E8,E7,E6,E5,,,{8}8x,
7x/3x,3x/7x,3bx<6[8:1],6,3,8bx-5[8:1]*-3[8:1],5,8bx,
,,{4}2/B6/E6,8/B3/B4/D4,1h[4:1]/A6/B6/B5/A5,
4bx-7[8:1],{8}1,{16}2bx,2,{4}8-5[8:1],{8}4bx-7b[8:1],3h[4:1],
,,2,2,{4}8/3>5b[16:3],{32}D3f,D2,D1,D8,D7,D6,,,{4}8x-4[8:1],
{8}8/2,3>7[16:3],,3/5,{4}5-8[8:1],
5/4-1[8:1],4/2pp3[16:3],2/8,7qq1[4:1],
7/4,{8}2,2,3/5,5,4/6,7,
{4}8-4[8:1],8v5[8:1]/4v1[8:1],8,{32}A2,D3,A3,A6,D7,A7,,,{8}8x/4x,
8x/4x,6bx>3[8:1],3,6,1bx-4[8:1]*-6[8:1],4,1bx,
,,{4}7/B3/E4f,1/B6/B5/D6f,8h[4:1]/A3/B3/B4/A4/E4f,
5bx-2[8:1],{8}8,{16}7bx,7,{4}1-4[8:1],{8}5bx-2b[8:1],6h[4:1],
,,7,7,{24}1bx,2,3,4,5,6,8bx,1,2,3,4,5,
{8}6/2,3,4,2/5,{4}5/2h[8:1],{8}4,3/6h[8:1],
,4,{4}5/2h[8:1],{8}5,5,3,3,
4/6,5,4/6,5,4/6,4/6,{4}3b/7b,
{8}2h[8:1],4,4,3h[8:1],5,5,7/4,4/7,
5/3,3/5,4/8,8/4,{16}7-3b[8:1],3,7,3,{32}7bx,,,,{4},,{16},,{2}3bh[4:1],
{4}4bx,5/3,4/6,{8}3/5,2,
,4/3,{16}1h[4:1],{32},,,,E7,B6,,,,,{8}2,{4}3/4,
{8}7,7,3xh[8:1],B5,3xh[8:1],B1,3xh[8:1],7,
,7h[8:1],5h[8:1],6x,2h[8:1],4h[8:1],3x,3x,
6,4,6xh[8:1],B4,6xh[8:1],B8,6xh[8:1],2,
,5,{4}6/2h[4:1],{32}B6,E7,,,{8}1,{4}1,
{8}5/3,3,4/6,6,3/5,3,{4}2bqq3[8:3]/6bqq7[8:3],
{8},,,,4x,8,4,4,
{4}3x<6[4:1],6<1[4:1],1pp8[8:3],{8}6,6,
,5,5,{24}E1,B1,B2,,,,{8}6,{16}4,5,4,5,
{8}3,3,3xh[8:1],B5/E6,3xh[8:1],B1/E2,3xh[8:1],7,
7h[8:1],4h[8:1],6x,2h[8:1],5h[8:1],3x,3x,8,
6,4,6xh[8:1],B4/E4,6xh[8:1],B8/E8,6xh[8:1],2,
,4,{4}6/2h[4:1],{32}B6,E7,,,{8}1,5,5,
3,3,{4}4b/2h[4:1],{32}B6,E7,,,,,,,{8}2h[4:1],6h[4:1],
,3,3/5,5/3,4/6,6/4,5/7,5/7,
{4}8b/4h[4:1],{8}5,3b/7b,{16}6,4,{8}5,{4}8b/2bv5p8[1:4],
{16},,7x,6x,{4}5bxV31b[2:7],
