&title=Crush the Dystopia
&artist=MintJam vs Masahiro "Godspeed" Aoki
&first=0
&des="Carpe Diem, no time to be GUILTY"
&clock_count=6
&lv_5=14+
&inote_5=(205){1},{2},
{4}6h[4:3],,,2h[4:3],,,3h[4:3],,,5h[4:3],,,4h[4:3],,,3h[4:3],,,6h[4:3],,,Ch[4:3],,,
8x<3<8b[1:4],,,3h[2:1],,,2h[2:1],,,1h[2:1],,,8h[2:1],,,1h[2:1],,,{16}2,8,1,8,2,4,3,5,4,6,5,7,1,8,1,8,7hx[4:1]/2x,,,,8-4[8:1],,,,
{8}8b/7,,5,6h[4:1]/4,,5,6-8[32:3],4,6x,,12,,5h[4:1]/3,,4,3h[4:1]/5,,4,3-1[32:3],5,3x,,78,,
5h[4:1]/7,,6,7h[4:1]/5,,6,7-1[32:3],5,7x,,23,,4h[4:1]/2,,3,2h[4:1]/4,,3,2-8[32:3],4,2x,,76,,
6/5h[4:1],,6,4/5h[4:1],,4,6V84[32:7],5,6x,,1,,3/4h[4:1],,3,5/4h[4:1],,5,3V15[32:7],4,3x,,8,,
7/6h[4:1],,7,5/6h[4:1],,5,7V15[32:7],6,7x,,2,,34,3>8[4:1]/4,,8<5[4:1],,5>2[4:1],,2,1x-5[8:1],8,7h[4:1],,
3bpp4[8:3],,4,4>8[8:3],,8,,7,7x-3[8:1]*-4[8:1],,7,,2qq1[8:3],,1,1>5[8:3],,5,,6,6x-2[8:1]*-1[8:1],,6,,
8pp1[8:3],,1,1<5[8:3],,5,,4,4xw8[8:1],,4,,6qq5[8:3],,5,5<8[4:1],,1,,2,1x/3-5[32:3],1x/3,8h[4:1],,
6>2[4:1],,2q4[2:1],,{16}8x,,,8x,,,7x,,{8}6x-8[32:3],,6/5h[4:1],,1V75[4:1],,5q7[2:1],5,,3,,1,1x-5[8:1],,1/8h[4:1],,
6-8[32:3],,46,4-6[32:3],,24,2-4[32:3],,82,8-2[32:3],,85,5<8[8:1],,2pp5b[2:1]/5,2,,,,,8,8,17,17,
{16}2b/6b,,3,4,3,,2,,8,,17,,26,,6,,57,,4,,3>6[16:5]/6,,5,,4h[4:1],,,,,,5-1[8:1],,7x-4[8:1],,5,,7,,,,12,,3,,45,,6,,
7/8pp4[2:1],,,,5,,5h[4:1],,,,,,6,,57,,6/8-4[8:1],,,,1,,1,,1x,2,3,4,6,7,8,1,5,4,3,2,8,7,6,5,8,1,2,3,5,6,7,8,
1b-6[8:1]/5b,,,,13,,3h[8:1],,4-7[8:1],,2,,2h[8:1]/4,,,,8-4[8:1]/1,,,,18,,,,8-3[8:1]/5,,,,86,,6h[8:1],,5-2[8:1],,7,,7h[8:1]/5,,,,1-5[8:1]/8,,,,81,,,,
1<6[8:1]/4,,,,12,,{24}2,3,4,5x/6hx[4:1],,,,,,3,,7,,5,,1h[4:1],,,,,,2x,3,4,8x,7,6,{16}1h[8:1],,4,3,5,4,6,5,{24}7x,8,1,2,3,4,5x/8x,1,2,3,4,5,6x/8hx[4:1],,,,,,1-5b[8:1],,,,,,
{8}1b/7,,6,4,6,5,6,5,6,7,6,8-4[8:1],6,8,6<1b[8:1],,
6x/2,,3,1,3,2,3,2,3,4,3,5-8[8:1],3,5,3-7b[8:1],,
3x/6,,5/E7,,4/E6,,3/E5,,1/E3/B3,,8/E2/B2,,7/E1/B1,,6xpp1[4:3]/E8/B8/B7,6x,
5hx[8:1],,5h[8:1],,5h[8:1],,5h[8:1],,48,4,47,4,36,6,26,6,
{16}1x/5,,2,4,3,,4/8x,,7,5,6,,1x/5,,3,4,1x,7,1,7,1w5[16:5],7,1,7,{4},,
{16}8b/1b,,37,,6,5,7,,18,,7,5,6,5,8,,26,,78,,6,5,8,,12,,7,5,6,5,8,,
73,,21,,3,4,2,,18,,2,4,3,4,1,,73,,21,,3,4,1,,78,,2,4,3,4,1,,
8x/7x-3[8:1],,7,,2-6[8:1],,2,,1-5[8:1],,1,,8-4[8:1],,8,,7p5[8:3],,,,5x,,5x>7[4:1],,,,1,,1,,,,
5x/6x,,3,4,2,,1x/8x,,7-3[8:1],5,6,,7x/8hx[4:1],,,,4x,2,5,3,6,4,7x,5,8,1,8,1,2b/7b,,,,
1b/8b,,62,,3,4,2,,81,,2,4,3,4,1,,73,,21,,3,4,1,,87,,2,4,3,4,1,,
26,,78,,6,5,7,,81,,7,5,6-2[8:1],5,8,,7x-3[8:1],,7,,8x-4[8:1],,8,,1x-5[8:1],,1,,2x,,2,,
{8}3b/4b,,56,7,34,2,78,5,12,4<1[24:5],35,4x/6h[8:3],,{24}2,3,4,{8}5bx,,
86,7,12,3,78,6,34,1,56,8>5[24:5],71,8x/2h[8:3],,{24}6,7,8,{8}1bxw5b[8:1],,
{8}1b<3[4:3]`Cf/B3/B7,,,,,,1h[2:1],,,,8,8,1/7-4[8:1],17,8x,1-5[8:1],5,1x,6,4h[4:1],8x,8,17,{16}2,3,{12}46,6,5,
{8}7bh[8:3],,,8x,1-6[8:1],2,1x/3,4,5h[8:1],{24}7,6,5,{8}4h[8:1],3,12,12,{16}7/3,6,5,4,1,2,38,7,6,5,2,3,45,6,7,8,{12}2x,1x,2x,1x,2,1,3,3,4,4,2,2,
{64}1bh[8:3]/3x,B3,Cf,B7,{16}7x>5[16:7],{8},,,,,1xs5b[4:1],,6hx[8:3],,,,{16}4,5,3,5,4,5,3,5,4x,6,4,6,5,4,3,2,18,7,6,5,48,1,2,3,6x,5x,6x,5x<4[2:1],
{8}7bh[8:3],,,,,8,8z4b[4:1],,3hx[8:3],,,,{24}2/1x,8,7,6h[4:1],,,8,,,8x,7,6,5h[4:1],,,7,,,7x,6,5,{8}4h[8:1],3,15,{16}2,4,4,4,3,5,5,5,4,6,6,6,5,7,7,7,
{1}1bw5[4:7],,,,
{8}46,6,56,6,76,6,56,6,63,3,43,3,23,3,83,3,
{16}17,,2,4,3,,28,,7,5,6,,45,,3,4,1,2,3,4,8>8b[4:1],7,6,5,{32}D1,D2,D3,D4,D5,D6,D7,D8,{4}D1f/A1/A8/E1,
{16}3bx/7bx,,18,,2,4,3,,15,,3,4,2,4,3,,26,,78,,1,4,3,,56,,3,4,1,4,3,,
62,,81,,7,5,6,,84,,6,5,8-4[8:1],5,6,,1bx-5[8:1],,1,,2bx-6[8:1],,2,,3bx-7[8:1],,3,,4bx,,4,,
{8}5b/8b<5[8:1],,2-6[8:1],3,4-7[8:1],5,8-4[8:1],1,2,3>6b[24:5],4x/6,3x/8h[8:3],,{24}5,4,3,{8}2b,,
{8}7/1>4[8:1],8,7-3[8:1],6,5-2[8:1],4,1-5[8:1],8,7,6<3b[24:5],5x/3,6x/1h[8:3],,{24}4,5,6,{8}7b-3[16:1],{24}8x,1x,2x,
{4}7bp5[16:9]/3bp1b[16:9]`Cf,,,,{8}4x/8x,6,57,3,24,3,15,7,
68,1qq5[8:3],28,1/3h[4:1],,,4,37,1/8-4[8:1],8,2-5[8:1],2,6<1[8:1],6,4h[4:1],,
{12}2h,4,6h,1,7h,5,8h,3,5h,7,4h,2,{16}8,1,2,3,1,2,3,4,6,7,8,1,5,6,7,8,
{24}1h[8:1],,,8,7,6,2h[8:1],,,7,6,5,1h[8:1],,,6,5,4,8h[8:1],,,5,4,3,{4}2b>8[8:3]/8bq2[8:3],,,1xw5b[8:1],
1b<3[8:3]*-7-5-3[8:3]`B1`Cf`B5/B6/B4,,,{8}2,1,8/7-3[8:1],7,1-5[8:1],1,4<7[8:1],4,2,2h[8:1],
{24}8,1,2,3,4,5,{16}1,2,3,4,{24}1,8,7,6,5,4,{16}8,7,6,5,{8}4-1b[8:1],8,47,6,{32}8x/5h[32:11],7,6,,4,3,2,1,8,7,6,,4,3,2,1,
{8}7b/8b-3[8:1],,8/6-1[8:1],,6/4-7[8:1],,4/2-5[8:1],,28,7>4b[24:5],46,7x/1h[8:3],,{24}5b,6,7,{8}8b,,
{8}7b/4b-7[8:1],3,4/2-5[8:1],1,2/8-3[8:1],7,8/6-1[8:1],5,64,3<8b[24:5],82,3x/5h[8:3],,{24}1b,2,3,{8}4b,,
{16}8b,4,5,4,1b,3,4,3,8b,5,6,4,1b,3,5,4,{24}8b,7,6,2b,3,4,7b,6,5,1b,2,3,{32}6b,5,4,3,2,1,8,7,6/5b,4b,3b,2b,1b,8b,7b,6b,
{1}5bqq2b[4:5]/1bqq6[4:5],{4},,,18,
{8}4/6h[4:1],,,78,,,{24}12,3,4,56,,,78,6,5,34,,,18,2,3,45,,,{8}37,56,28,{32}1b,28,37,4<2b[32:57]/6,
{1}5bh[1:2],,,,E
