&title=Utopia or Dystopia
&artist=夢乃ゆき
&first=0.06
&des_1=NLNS
&des_2=NLNS
&des_3=NLNS
&des_4=NLNS
&des_5=NLNS
&lv_5=13+
&des_6=NLNS
&des_7=NLNS
&des=NLNS
&inote_5=(197){4},,2/7-4[8:1],{8}1,2-5[8:1],
,8,{4}7<4[8:1],{8}1,2q6[8:1],,7,
{4}8p4[8:1]*q4[8:1],8,{8}2-5[8:1],8,2,7-4[8:1],
1,7,2,5bxqq8[8:5]/3bxpp8[8:5],,,,,,,,,{4}7b/2b,
{8}6/5,7/4,
,5/3,,4/6h[8:3],,5,4h[4:1],5,
7,5,{4}8/4,2/7,{8}3/4,2/5,
,4/6,,5/2h[8:3],,4,5h[4:1],3,
1q5[8:1]*p5[8:1],1x,{4}1x,7/2,{8}6/5,7/4,
,5/3,,4/7h[8:3],,5,4h[4:1],6,
7,5,{4}8/4,7/2,{8}3/4,2/5,
,4/6,,7h[8:1]/3h[8:1],{16},,6,5,{8}7,{16}3,4,
{8}2,5,{4}3/7qq3[2:1],2b,2,
2,2/4<7[8:1],1xp3[8:1],8x,
7,2pp6[2:1],7,7,
{8}7,8/5x>2[8:1],,8xqq6[8:1],,1x-4[8:1],,7x,
,8,{4}7/3qq7[2:1],6,6,
6,6/8>3[8:1],5xv8[8:1],4xv1[8:1],
{8}7x,6,2x,3,5,5,3,3,
7,7>5[4:1],,E4/A3/B3f,,,1,{16}2,4,
{8}3,{16}6,5,{8}7,3,{4}2b/8b-6[8:1],1,
{8}2-6[8:1],6-4[8:1],{4}2,7-1[8:1],2-5[8:1],
{8}7,6h[4:1],,3,5/2h[4:1],4,6h[4:1],4,
3h[4:1],5,7h[4:1],4,{4}3-5[8:1],6-1[8:1],
{8}3,2h[4:1],,8,{4}7/3-5[8:1],8,
{8}7-3[8:1],3-5[8:1],{4}7,2-8[8:1],7-4[8:1],
{8}2,3h[4:1],,5,6/2q6[8:1],2,8p4[8:1],8,
1,1,2,4/3,{16}2,5,3,4,3,4,2,5,
3,4,3,4,2,5,3,4,{2}1bp5p1qq8>1pp2<1-5b[2:7],
{4},,,,,,,,,,,,,,6-4[8:1],
3,
3-5[8:1],7,6-4[8:1],2,
3-5[8:1],8,7-4[8:1],1,
2-5[8:1],8,7-4[8:1],1,
{8}3,5,{4}6/2,{8}4x,6,6,{16}4x,5,
4,5,{8}3,6x,6,{16}3x,5,{8}3,{16}6x,4,{8}6,
{16}3x,5,3,5,4x,6,4,6,{8}3x,3,3,{16}5x,4,
5,4,{8}6,3x,3,{16}6x,4,{8}6,{16}3x,5,{8}3,
{16}6x,4,6,4,5x,3,5,3,{4}7x-1[8:1],{8}3,3,
2x-6[8:1],2,8,8,7x-3[8:1],7,2,2h[4:1],
,8,1/7,6/2,{16}3x,5,3,5,2x,6,2,6,
1x,7,1,7,{48},,,,,,A1/D1/A8,B8`B1,Cf,B3`B6,{24}A6h[24:13]/A3h[24:13],,,,,,,,,,,,,{2}D1f/E1/B8/B1/C/B6/E6/D6/B3/E4/D4/B5/B4/A8/A1,
{4}7b<4[8:1]/3b>8[8:1],7/3-7[8:1],
3x/1-5[8:1],{8}1/8,7,{4}6<1[8:1],6/4p8[8:1],
{8}4,{16}7,6,{4}5-3[8:1],6/5V74[4:1],{8}2/5,2-5[8:1],
,2/6-2[8:1],,6x/8V64[4:1],,1,2V41[4:1],3,
,6,6,7,8/2,{16}7,5,{8}6,2,
3<5[8:1],5-1[8:1],3,7,{16},,7,8,{8}6,2,
6>3b[8:1],3-7b[8:1],6,1,{16},,1,8,1,8,{8}1-7-5[8:1]*<8-6[8:1],
,1V35[8:1]*>2-4[8:1],,1<6p1[2:1]*>4q1b[2:1],,,,,,,,,{4}2b>5[8:1]/6b<1[8:1],
2/6-2[8:1],
6x/8-4[8:1],{8}8/1,2,{4}3p7[8:1],3/5<8[8:1],
{8}5,{16}2,3,{4}4-6[8:1]*-2[8:1],4-8-2[4:1],{8}7/4,7<4[8:1],
,7/3-7[8:1],,3x/1V35[4:1],,8,7V15[4:1],6,
,3>8[8:1],4,6,7x,{16}7,5,{8}6,2-5[8:1],
5V38[4:1],6,7,6,5x,{16}2,4,{8}3,7-3b[8:1],
3V58b[4:1],2,1,2,{2}3bh[8:7],
{16},,,,,,8,2,7,1,7,1,6,2,6,2,
5,3,5,3,6,2,6,2,{4}7b,{8}3/4,5/2-6[8:1],
,2/4-7[8:1],,4/3h[8:3],,8,7h[4:1],2,
3,6,{4}4/8,7/2,{8}6/5,4/7-3[8:1],
,7/5-2[8:1],,5/6h[8:3],,1,2,7,
2pp4[8:1]/8qq6[8:1],7x/3x,{4}8x/2x,3x/7x,{8}3/4,5/2-6[8:1],
,2/4-6<7[8:1],,4/1h[8:3],,8,7h[4:1],2,
3,6,{4}4/8,7/2,{8}6/5,4/7-3[8:1],
,7/5-3>2[8:1],,5/8h[4:1],{16},,1,7,{8}3h[8:1],{16}6,4,
{8}8h[8:1],2x,{4}7x,{2}D8/A7/D7/B6/E8/B7,
A1/E2/B2/E3/D3,A6/B5/A5/B6,
E3/B3/A3/D4,{8}7x/3x,{16}6,4,{8}6,2/7,
{16}3,5,3,5,{8}2,1/7,{16}6,5,{8}7,{16}2,4,{8}3,
{16}6,4,7,3,6,4,7,3,{2}8b/B5/E5f/D5/B4,
E
