&title=[創作譜面] Caterpillar Song
&artist=Bitplane feat. 葉月ゆら
&first=0
&des=おにねこ
&lv_6=13+
&inote_6=(90){1},
{16}6h[16:1],,3h[16:1],,8,,6h[16:1],8,3h[16:1],8,6h[16:2],,8,,{48}3h[16:1],,,8,7,6,
{16}5h[16:1],,2h[16:1],,8,,5h[16:1],8,2h[16:1],8,5h[16:2],,8,,{48}5h[16:1],,,1,2,3,
{16}4h[16:6],,6,,8,,6,3,5h[16:6],,6,,8,,3,6,
{16}4h[16:6],,3,,8,,6,3h[16:5],,6,,6,8,,6,6,
3h[16:2],4,4,2h[16:2],4,4,3h[16:1],4,4q8[8:1],,2>4[32:3],,,,,{128},,,,,,,
{16}
6h[16:1],5h[16:2],,7h[16:2],5,5p8[8:1],6,6,5qq6[16:3],,,,,,,,
2h[16:2],4,4,1h[16:2],4,4,2h[16:2],4,4<6[8:1],,,,3h[8:2],,,,
6h[16:2],3,4h[16:1],6h[16:2],3,4h[16:1],6h[16:2],2,3<5[32:2],6,5p8[32:3],,,,,,
6h[16:2],4,5,7h[16:2],4,5,6h[16:1],4,5>3[32:3],7,7>2[32:3],,,,,,4,
3h[16:2],5,4,2h[16:2],5,4>1[8:1],3,2>5[8:1],,,,,,,,6,
7h[16:2],4,5,8h[16:2],4,5,7,4>1[8:1],5,6>4[32:3],,,,,,2h[16:2],4,,5,4,
2h[8:1],5,4,3<5[32:2],2,5p8[32:3],,,,,,
7h[16:2],2,3,6h[16:2],1,2,7h[16:2],8,1-5[32:3],2,6h[8:3],,1,,,,
1h[16:2],7,6,3h[16:2],8,7,2h[16:2],1,8-4[32:3],7,4,3h[16:5],8,,,,
7>2[32:3],6,2<7[32:3],3,,,,,3<6[32:3],2,6>3[32:3],7,,,,,
8v5[32:3],7,1v4[32:3],2,8,,1,,6>4[32:2],7,4q1[32:3],,6,,2h[16:2],,,
2,3,4,6h[16:2],5,4,3h[16:2],,
7h[16:2],6,5,3h[16:2],4,5,6h[16:2],,
3h[16:2],5,6,7h[16:2],5,4,3h[16:2],,
6h[16:2],4,3,2h[16:2],4,5,6h[16:2],,
2h[16:1],4,5,7h[16:1],5,4,2h[16:2],,
8,6,5,3h[16:1],5,6,8h[16:2],,
1,3,4,6h[16:2],4,3,2,
6>4[32:4]/1p4[32:4],,,,,,,,
2b/6b,3,2/6h[16:1],4,2h[16:1]/6,5,2h[16:1]/6,7,4v1[16:1],3,8v5[16:1],7,,,,,
1/6h[16:1],2,3h[16:1]/7,6,5/1-5[16:1],2,7-3[16:1],6,1>4[16:1],,7,,1,8,8h[16:3],,
5,4,3/7h[16:1],2,7h[16:1]/3,1,3h[16:1]/7,8,2-6[16:1],3,6v4[16:1],,,,,,
8/3h[16:1],7,6h[16:1]/2,3,4/8-4[16:1],7,2-6[16:1],3,8<5[16:1],,2>5[16:1],,8,,2,,
7/1h[16:1],6,7/1h[16:1],5,2/7h[16:1],3,2/7h[16:1],4,5-2[16:1]/6-1[16:1],,1-6[16:1]/2-5[16:1],,,,,,
3/8h[16:1],2,6/1h[16:1],7,3/8h[16:1],2,6/1h[16:1],7,2/8-4[16:1],,5-8[16:1]/3-8[16:1],,,,,,
6/4h[16:1],7,6/4h[16:1],8,3/6h[16:1],2,3/6h[16:1],1,8/7-4[16:1],,4/3-8[16:1],,7,,3,,
1/6h[16:1],2,8/3h[16:1],7,1/6h[16:1],2,8/3h[16:1],7,6-1[16:1]/1-4[16:1],2,5-1[16:1],,,,,,
8/2h[16:3],7,6,5,1/6h[16:3],2,3,4,7-5[64:3],7-4[64:3],3-1[64:3],3-8[64:3],,,,,
7,6,5h[16:2]/1,2,3h[16:3],7,6-8[16:1],5,1-5[16:1],,2-4[16:1],,,,,,
5/6h[16:3],4,3,2,5/1h[16:3],6,7,8,3-1[64:3],3-8[64:3],7-5[64:3],7-4[64:3],,,,,
3,2,1h[16:2]/5,6,7h[16:3],3,2-4[16:1],1,6-8[16:1],,5-1[16:1],,,,,,
8/2h[16:3],7,6,5,1/6h[16:3],2,3,4,5-7[64:3],5-8[64:3],5-3[64:3],5-2[64:3],,,,,
8,7,6h[16:2]/1,2,3h[16:3],6,5-8[16:1],4,2-5[16:1],1,5-2[16:1],,,,,,
8/7h[16:3],1,2,3,8/4h[16:3],7,6,5,4-2[64:3],4-1[64:3],4-6[64:3],4-7[64:3],,,,,
1,2,3h[16:2]/8,7,6h[16:3],3,4-1[16:1],5,7-4[16:1],8,4w8[16:1],,,,,,
{16}2h[16:3]/6h[16:1],,5h[16:1],,2/4h[16:2],,2h[16:1],4,6-3[16:1],4,1-4[16:1],,,,,,
{16}7h[16:3]/3h[16:1],,4h[16:1],,7/5h[16:2],,7h[16:1],5,3-6[16:1],5,7,,,,{48},,,8,7,6,
{16}2h[16:3]/5h[16:1],,6h[16:1],,3/7h[16:2],,2h[16:1],8,6-8[16:1],8,2V84[16:2],,,,,,
{16}7h[16:3],,3h[16:1],,6/2h[16:2],,7h[16:1],1,3V15[16:2],1,7-1[16:1],,,,,,
{16}4,,5h[16:3]/3,,2,3,4,3,2h[16:3],,4h[16:1],,4/2,,,,
{16}5/3,,4h[16:3]/6,,7,6,5,6,6-8[16:1]/5-8[16:1],,3-1[16:1]/4-1[16:1],,6<3[1:1]/5p4[1:1],,,,
{1},
{1},
{1}5,
