&title=テトリス
&artist=柊マグネタイト feat. 重音テトSV
&first=0.067
&des=Kurage
&lv_5=13+
&inote_5=(170)
{1},
{8}4-2[8:1],4,5,,6-4[8:1],,1,,
{8}8-6[8:1],8,1,,2-8[8:1],,5,,
{8}4-2[8:1],4,5,,7>3[4:1],,3v5[8:1],,
{8}5,,2-4[8:1],4pp4[4:1],,,,,
{8}5-7[8:1],5,4,,3-5[8:1],,8,,
{8}1-3[8:1],1,8,,7-1[8:1],,4,,
{8}5-7[8:1],5,4,,6<2[4:1],,2v4[8:1],,
{8}4,,2-6[8:1],6-4[8:1],4v7[8:1]*v1[8:1],,,,
{8}6b-8[8:1]/2b,6,5,,3h[8:1],{16}1,2,8,,8,,
{8}4-6[8:1],4,3,,1h[8:1],{16}7,8,6,,6,,
{8}2-4[8:1],2,1,,7>3[4:1],7,3v5[8:1],,
{8}5,,2-4[8:1],4v5[8:1],5-7[8:1],,,,
{8}6-8[8:1],6,5,,3h[8:1],{16}1,2,8,,8,,
{8}3-5[8:1],3,2,,8h[8:1],{16}6,7,5,,5,,
{8}8-2[8:1],8,7,,5h[8:1],{16}3,4,2,,6,,
{4}3h[8:1]/5h[8:1],1h[8:1]/2h[8:1],7h[8:1]/8h[8:1],4h[8:1]/6h[8:1],
{8}2b/4b,3,57,6,34,45,56,,
{16}1b/8b,,2,1,3b,,5,4,6b,,8,7,1b,,5,,
{8}6b/8b,7,13,2,78,81,12,,
{16}4b/5b,,6,5,8b,,2,1,4b,,7,5,1bs5[16:5],,3,7,
{8}1b,,,6,6-2[8:1],3-7[8:1],,,6h[4:1],5,2h[4:1],4,7h[4:1],5,3q8[4:1]*V57[4:1],4,
{8},,,1-5[8:1],5v3[64:9]*v7[64:9],,,,
{16}6h[16:3],,,4,8,,{8}2-4[8:1],7-1[8:1],2-6[8:1],7,2,
{16}7h[16:3],,,5,1,,{8}4V26[4:1],7-1[8:1],4,7,,
{8}4b/8h[4:1],,6,8,2h[4:1],,8-6[8:1],1-5[113.333#32:3],
{4}2-4[85#16:1],,,,
{8}7b-3[8:1]/3b,,8>3[8:1],8,7-3[8:1],,5<8[8:1],5,
{8}7-3[8:1],,1>4[8:1],1,7-3[8:1],,6<1[8:1],6,
{8}7-3[8:1],,2-6[8:1],2,8-5[8:1]*-3[8:1],,8,,
{32}1,2,3,4,5,6,7,8,1,2,3,4,5,6,7,8,{4}1w5[8:1],,
{8}8b,26,4,35,1-5[8:1]/2,8,7-3[8:1]/1-3[8:1],6,
{8}71,,5-7[8:1]*-1[8:1],64,5,,2-6[8:1],2,
{8}7-1[8:1],,3-5[8:1],3,6-2[8:1],,2,,
{4}8<5[8:1]/4>1[8:1],8q4[8:1]/4q8[8:1],84,3b/7b,
{8}2-5[8:1]/1,,7-2[8:1],6,4-7[8:1]/7,,1-4[8:1],8,
{8}1/6-1[8:1],,3-6[8:1],2,3/8-3[8:1],,5-8[8:1],4,
{8}2-6[8:1]/5,,7-3[8:1],8,1-6[8:1]*-4[8:1]/7,,1,,
{32}8,7,6,5,4,3,2,1,8,7,6,5,4,3,2,1,{4}8w4[8:1],,
{8}1b,73,5,64,8-4[8:1]/7,1,2>5[8:1]/8<5[8:1],3,
{8}28,,4-2[8:1]*-8[8:1],35,4,,7-3[8:1],7,
{8}4-1[8:1],,8-5[8:1],8,3-7[8:1],,7,,
{4}1v2[8:1]/5v6[8:1],1>4[8:1]/5<8[8:1],5<4[16:5]/1,,
{8}5b,,3-7[8:1],3,4<7[8:1],,8-4[8:1],8,
{8}1>4[8:1],,5-1[8:1],5,6<1[8:1],,2-6[8:1],2,
{8}3<6[8:1],,7-3[8:1],7,8w4[8:1],,8,,
{32}2,3,4,5,6,7,8,1,3,4,5,6,7,8,1,2,{4}4w8[8:1],,
{8}2b-6[8:1]/6b,1,8>3[8:1],7,4qq8[8:3]/8,,5-7[8:1],6,
{8}5,,1-5[8:1]/2-4[8:1],38,12,,7-3[8:1],7,
{8}1-6[8:1],,4-1[8:1],4,3-7[8:1],,7,,
{4}1>4[8:1]/5<8[8:1],1qq7[8:1]/5qq3[8:1],15,4b/8b,
{8}1>4[8:1]/2,,1/7-2[8:1],6,5<8[8:1]/7,,3-6[8:1]/5,2,
{8}1>4[8:1]/3,,1/7-2[8:1],6,5<8[8:1]/7,,3-6[8:1]/5,2,
{8}7<4[8:1]/3,,2-6[8:1]/7,3,2/1w5[8:1],,1,,
{32}7,6,5,4,3,2,1,8,6,5,4,3,2,1,8,7,{4}5w1[8:1],,
{8}7b-3[8:1]/3b,8,1<6[8:1],2,5pp1[8:3]/1,,4-2[8:1],3,
{8}4,,8-4[8:1]/7-5[8:1],61,87,,2-6[8:1],2,
{8}8-4[8:1],,1>5[4:1],1,5<3[8:3],7,1,,
{8}5w1[8:1],,5,,3h[4:2]/7h[4:2],,,,
{8},8,1<6[8:1],2,5pp1[8:3]/1,,4-2[8:1],3,
{8}4,,8-4[8:1]/7-5[8:1],61,87,,2q6[8:1],2,
{8}7bp3[8:1],,1q5[8:1],1,8bp4[8:1],,2,,
{32}1b/8b,27,,,,,,,1b/8b,27,36,,,,,,1b/8b,27,36,45,,,,,
