&title=βlαnoir
&artist=Aoi
&first=-0.12
&lv_5=14+
&des_5=zouzouzou
&inote_5=
(202){4},,,2h[8:7]/7h[8:7],
,,,6h[8:7]/4h[8:7],
,,,2bq5[4:3],
,,,7bp4[4:3],
,3,3,2V46[4:3],
,,,8q4[4:3],
,,,1h[8:3],
{8},7h[8:3],,,{2}2h[4:3],
{4},8-4[8:1],8b,3h[4:3],
5,5,5,4/7h[1:1],
4,4,4,3h[4:1],
2h[4:1],1h[4:1],8h[4:1],5h[4:1],
7h[4:1],{16}2,3,4,5,8,7,6,5,{8}2,2,
4,4,6,6,8,8,7/1,1,
8/2,8,6/4,4,3/5,5,4/6,1,
5/3,8,6/4,1,5/3,7,{32}B1,B2,B3,B4,B5,B6,B7,B8,
B1,B2,B3,B4,B5,B6,B7,B8,{4}Ch[32:7],{8},,2/6,3-8[8:1],
5,3/7-4[8:1],,7/2-4[8:1]*-5[8:1],,2b,,7h[8:1],
1h[8:1],6h[8:1],3h[8:1],7h[8:1],1h[8:1],8,7/2,7/2-5[8:1],
,2/8-4[8:1],,8-5[8:1]/2v5[8:1],,2b/8b,,7h[8:1],
4h[8:1],5h[8:1],3h[8:1],8h[8:1],2h[8:1],7,{16}5x,6,5,6,
4,7,4,7,3x,5,3,5,2,6,2,6,{32},,,,1x,2,{16}3,
{8}7b,{32}2x,3,{16}4,{8}7b,{24}1x,2,3,7x,6,5,1b,{48},,,,{16}7x,8x,7x,8x,
6,1,6,1,5,2,5,2,{24}4x,3,2,1,8,7,{4}6/Ch[4:3],
,,,5/2-6[8:1],
5,5/8-4[8:1],5,5/1v6[8:1],
5,5/8v3[8:1],5,4b/7-2[8:1],
4,4/1-5[8:1],4,{8}3/6,{16}4,5,
{8}4,2/7,{16}4,5,{8}4,{4}6/3,4/7-3[8:1],
4,4/1-5[8:1],4,4/8v3[8:1],
4,4/1v6[8:1],4,5b/2-7[8:1],
5,5/8-4[8:1],5,3v8z4[2:1]/6v1s5[2:1],
{8},,,,,,6/3,4,
7-5[8:1],2,7-1[8:1],4,7,4,2,{16}3,4,
{8}3,5/2,{4}5/2h[8:1],{16}8,7,6,5,{8}8b,8,
7/1,6,2-5[0.297##0.1485],8-4[8:1],2,8,3,2h[8:1],
5,6h[8:1],{4}1-5[8:1],7b/1b,{16}8h[16:3],,,3h[16:3],
,,{8}6h[8:1],1h[8:1],7h[8:1],{16}4,3,2,1,6h[8:1]/8h[8:1],,,4h[8:1]/3h[8:1],
,,{8}7/2,{4}1-5[8:1]/8-4[8:1],C,{8}3,3,
7,7,{16}8h[8:1]/1h[8:1],,,6h[8:1]/4h[8:1],,,{8}5/2,{16}8,7,6,5,
2,3,4,5,8,7,2,3,7,6,3,4,{4}5/C,
{8}2-4[8:1],7,2-8[8:1],5,2,5,7,{16}6,5,
{8}6,4/7,{4}4/7h[4:1],{16}1,2,3,4,{8}1b,1,
2/8,3,7-4[0.297##0.1485],1-5[8:1],7,1,6,7h[8:1],
4,3h[8:1],{4}8-4[8:1],2b/8b,{12}2/5,,7/4,
{24},,1b,2,3,4,{12}7,,2/5,{24},,7b,6,5,4,{12}1,,3/8,
{48},,,,,,{16}6,5,7,4,5,3,6,2x,5x,,{8}6x/4x,7,
5/3,1,{16}3,4,{8}2,{16}6,5,{8}7,{16}2,1,2,1,
4,6,4,6,1h,2h,8h,7h,2h,3h,7h,6h,{4}Cf/1b-3-5-7-2-4-6-8>1[4:13],
,,,,,,,,,,,,,,,7h[4:1],
{8},4,{4}4h[2:1],{16},,,,,,,7h[48:7],
{48},,,,{12}1h[6:1],,6h[6:1],,3h[6:1],,8h[6:1],,{4}5qq1[2:1],
{8},1,{4}1,{16},,A8,E1,B1,B2,B7,C,
B3,A3,A8,E8,E7,A6,A2,E3,E4,A4,,,{4}6,
6,6,6,6,
6,{16}3,4,{8}3,5/2,2/5,{4}6/3,
3,3,3,{16}6,5,{8}7,
{16}3,4,{8}2,{16}7-4[8:1],8,6,1,{4}7b,{8}6/1,1,
8/2,8,6/4,4,3/5,5,4/6,1,
5/3,8,6/4,1,5/3,7,{16}3,4,3,4,
1,8,1,8,5,6,5,6,2,8,2,8,{8}2,{24}7x,6x,5x,
{32}8b/4x,,,,,2x,3x,4x,{8}5x/1b,{32}B7,B6,B5,B4,B3,B2,B1,B8,B7,B6,B5,B4,{4}Ch[1:4],
,,,8h,
,,,7h,
,,,6h,
,,,5h,
,,,7h[8:1]/5h[8:1],
4h[8:1]/2h[8:1],8-4[8:1]/1-5[8:1],8b/1b,{8}7-3[16:1],7,
5-1[16:1],5,{16}8,7,6,5,4/1,8,7,6,{8}1-5[8:1],2-6[8:1],
1,2,{16}4,5,6x,7,8/2,3,4,5,1-5[8:1],,,3,
{8}1b,3,{16}8-4[8:1],,,6,{8}8b,6,{4}7bv4[4:1],
{16}4/7b,3,{8}2,{16}5,6,7,8/1-5[16:3],2,3,{8}4,{4}1b/C,
{8}2-6[16:1],2,{16}8,1,2,3,4/7,8,1,2,{4}3/7b,
{16}4,6,4,6,3,7,2,7,1,6,2,5,{4}3b-8[8:1]/4x-8[8:1],
3b/4b,5bw1[8:1],5b,{8}3/6,{16}4,5,
{8}4,6/3,{4}2-5[8:1]/7-4[8:1],2b/7b,{32}7b/1h[32:3],6,5,4,,,,,2b/8h[32:3],
3,4,5,{96},,,,,,,,,,,,{12}6bh[12:1]/4bh[12:1],,5bh[12:1]/3bh[12:1],,8b/1b,{16},,,{64},{192},{32}7x,6,5,4,
1x,2,3,4,{96},,,,,,,,,,,,{12}5b/3b,,4b/6b,{24},,,{8}8b/2b,{16}7-4[8:1],,,8,
{8}7,8,{16}2-5[8:1],,,1,{8}2,1,{4}3b/8b,
{16}8,7,6,5,1,2,3,4,8,7,6,5,{8}4/3,1,
6/4,8,5/3,1,6/5,8,1/2,4,
7/1,5,8/2,4,7/8,5,{16}3,4,3,4,
2,5,2,5,1,6,1,6,8,7,8,7,1,2,3,4,
8,7,6,5,3,2,1,8,4,5,6,7,{4}2h[4:1]/8h[4:1],
{8},7h[4:1]/1h[4:1],,,6h[4:1]/2h[4:1],,,5/3,
{16}5/3h[#0.2970352],,,,{32}7,6,5,4,3,2,1,8,{4}7/3b,{16}7,8,7,8,
6,1,6h[8:1],1,2,3,4,5,8,7,6,5,3,4,2,5,
1,7,2,7,3,6,3,6,4,5,4,5h[16:3],3,2,1,8,
5,6,7,8,2,3,4,5,8,7,6,5,2,1,3,8,
4,7,3,6,1,2,3,4,8,1,2,3,{4}8h[4:3]/4h[4:3],
{16},,,,,,,,,,,,7h[16:1]/5h[16:1],,,7h[16:1]/5h[16:1],
,,{8}4h[16:1]/3h[16:1],{16},4h[16:1]/3h[16:1],,,{4}7b/2b,{8}7/2,{16}1,8,
{8}1,7/2-4[8:1],3,{16}2/7-1[8:1],6,{8}5,2v5[8:1],3,2/8-4[8:1],
7,{16}8/4x,3,2,1,5x,6,7,8,{8}2,2-5[8:1],1,
2/8-4[8:1],7,{24}8/4x-7[8:1],3,{6}2,{24}8x-4[8:1],1,2,3,,,{8}8x-2[8:1],{24}3,,3,
{8}8x-6[8:1],{24}5,,5,{8}8x-4[8:1],{24}2,,2,{8}8x,{24}3,,3,{8}1bx,{16}2x,7,
3,6,4,5,{12}4h[12:1]/6h[12:1],,7h[12:1]/5h[12:1],,8h[12:1]/2h[12:1],{48},,,,{16}1,7,2,6,
3,5,{8}3,{12}4xh[12:1]/6xh[12:1],,5h[12:1]/3h[12:1],,7h[12:1]/2h[12:1],{48},,,,{16}1,8,1,8,
3,4,3,4,8,7,1,6,8,7,1,6,8,7,2,3,
8/4,7,6/2,3,4/7,6,{32}5/1,2,3,4,5,6,7,8,1x/7x,6x/2x,5x/3x,4b-8-2v3-5[32:121],{1},,,,{4}2h[1:1],
,,,5h[1:1],
,,,3h[8:3],
{8},6h[8:7],,,{2}4h[2:1],
{4},7h[4:1],2h[4:1],5,
{8}4,6,,3,5,2,{4}7,
{8}8/1,1h[8:1]/8h[8:1],,7,4,5,{4}2h[4:1],
3h[4:1],4h[4:1],7h[4:1],2h[4:1],
8h[4:1],{12}B2,B3,B4,B8,B7,B6,1h[2:1]/B5,{24},,,,,,,,,,{8}6,
4,5,3,{4}1/7,
{8}8/2,2/8h[4:1],,4,,3/6-1-3-7-4-6[8:31],{1},,,,{4}8-4[16:1],
E
