&title=一千光年
&artist=いよわ
&first=0.1
&des=よわい
&lv_5=13+
&inote_5=(192)
{4}
,,,,
{4}5xh[16:3],,,5-1b[4:7],
{4}
,,,,
,,,3h[4:8],
{4}
7,7,7,7,
6,6,6,6,
{4}
5h[4:3]/2,2,2,2,
6h[4:3]/3,3,3,3,
{8}
73,4,56,,2,2,6,5,
34,2,6,7,2,3,45,6,
{8}
71,2,3,7,6,5,43,3,
25,6,74,3,2,2,5-1b[8:1],5,
{8}
,2,2>5[4:1],,5<8[4:1],,8>3[4:1],,
3V51[8:3],,6,6-8[8:1],,,,3h[4:1],
{8}
,7,7<4[4:1],,4>1[4:1],,1<6[4:1],,
6V47[16:5],,3,3,,2-5[8:1],8,2,
{8}
,6-3[8:1],8,6,,2-5[8:1],8,2,
,6-3[8:1],8,6,,2>5[8:1],7,2,
{8}
,8<5[8:1],2,8,,3q7[8:1],5-1b[4:3],3,
,,,,,,,,
{8}
7/2>6[8:3],,7,,7,,7,4,
7,3,7,2,7-5[12:1],,1,,
{8}
2/4<8[8:3],,2,,2,,2,8-5[8:1],
2,,2,,2/4-7[8:1],,2,,
{8}
6/4>8[8:3],,6,,6,,6,8,
6,1,6,2,6-8[12:1],,2,,
{8}
3/1<5[8:3],,3,,3,,3,5-8[8:1],
3,,3,7>2[8:1],3,,3,,
{8}
8h[8:1],4,8h[8:1],5,8h[8:1],4,8h[8:1],3,
2-8[12:1]/7,,7-5[12:1]*-3[8:1],,7,,2,,
{8}
1h[8:1],5,1h[8:1],4,1h[8:1],5,1h[8:1],6,
1-3[12:1],7,1-5[8:1],7,1,,73,,
{8}
6h[8:1],1,5h[8:1],8,5h[8:1],1,5h[8:1],2,
3-5[12:1]/6,,6-8[12:1]*-2[8:1],,6,,8,,
{8}
3h[8:1],1,4h[8:1],2,4h[8:1],1,4h[8:1],8,
3-1[8:1],7,3-7[8:1],6,3,5-1b[8:1],,54,
{8}
,2-4[8:1],8,2,6,6-8[8:1],5,6,
1,1,5,3,7-1[8:1]*-5[8:1],,,,
{8}
2-4[8:1],6,2,8,5-2[8:1],6,5,8h[4:1],
,2,6,4,8-2[8:1]*-6[8:1],,,,
{8}
3,3-5[8:1],7,3,6,6-8[8:1],5,6,
1,1,5,3,7-1[8:1]*-5[8:1],,,,
{8}
2,2,35,35,46,46,8-5>4[6:1],8,
3>6[4:1],,,,5-1b[8:1],,,,
{8}
5bx-2[8:1],,7/5bx-8[8:1],,3/5bx-2[8:1],,7/5bx,,
6bx<1[8:1],1>4[8:1],6bx/1,,5-2[8:1]*-8[8:1],,,,
{8}
4bx-7[8:1],,2/4bx-1[8:1],,6/4bx-7[8:1],,2/4bx,,
3bx>8[8:1],8<5[8:1],3bx/8,,4-7[8:1]*-1[8:1],,,,
{24}
6bx/2bx,3,4,5,6,7,8,1,2,3bx-6-1[4:1]/7bx-4-1[4:1],,,{8},,,,
{8}8bx<5[8:1],,8x/3bx>8[8:1],,3x/6bx-3[8:1],,6x/7bx>5[4:2],,
{8}
5bx,,6,6,7,7,8-4[8:1],4,
3x,2,1,8,7,6,5-1b[8:1],4xh[8:1],
{8}
,2,7x,4,5/3x,2,6x/4,7,
5x/8>6[4:1],3,8x/2h[4:1],,,1,7,8x/2,
{8}
1-4[8:1],6x,6x-1[8:1],,3x<6[8:1],,2,1,
8>3[8:1],7,6,5h[4:1],,4-2[8:1],,6,
{16},,1,7,8,,6bxh[8:1],,,,4,5,3,,2bxh[8:1],,
,8,1-5[8:1],,27,,1bx/8`Cf,,,,8,,7,,6x>3[8:1],,
{8},2,1,8x>3[8:1],,7,6,5b-1b[8:3],
,,3,,3,,3,3x-8[8:1],
,5,6,7x>2[8:1],,6,5,4x-1[8:1],
,6,7,8x-4[8:1],,1,2,3x<6[8:1],
,2,1,8x-5[8:1],,2,3,4x-7[8:1],
,1,1<6[8:1]*>4[8:1],,,,,6bx-1[8:1],
,2x-5[8:1],3,2bx-8[8:1],,7x-4[8:1],6,7bx-1[8:1],
,2x-6[8:1],3,8x/2bx,,8,7,6x-1[8:1],
,6/4,3,2xV48[4:1],,2/7,6,5x-1b[8:1],
{8}
,,2b,2,3/7,6,5/4,3,
6/5,7,8/1,2,5/3,6,6/4-1[8:1]*-7[8:1],,
{8}
,,8b,8,7/2,3,6/4,5,
4/3,2,8/1,7,5/6,4,3>8[8:1]/8<5[8:1],,
{8}
,,2b-4[12:1],2,5-7[12:1],5,2<7[8:1],,
2/7b,,6-4[12:1],6,3-1[12:1],3,6<1[8:1],,
{8}
2b/6,,3-5[12:1],3,6-8[12:1],6,3>8[8:1],,
5-2[8:1],,7-4[8:1],,8>3[8:1],,5-1b[8:1],5,
{8}
,,3b,7,6/2,3,4/5,6,
3/4,2,1/8,7,4/6,3,3/5-8[8:1]*-2[8:1],,
{8}
,,1b,8,2/7,6,3/5,4,
5/6,7,1/8,2,4/3,5,6<1[8:1]/1>4[8:1],,
{8}
,,7b-5[12:1],7,4-2[12:1],4,7>2[8:1],,
7/2b,,3-5[12:1],3,6-8[12:1],6,3>8[8:1],,
{8}
7b/3,,6-4[12:1],6,3-1[12:1],3,6<1[8:1],,
4>1[8:1],,6-1[8:1],,4-1[8:1],,5-1b[8:1],5,
{8}
,,3b,4,3/5,2,1/8,7,
6/4,5,6/4,5,3<7[6:1],3,2q8[6:1],2,
{8}
,,6b,5,6/4,7,8/1,2,
3/5,4,3/5,4,6V42[6:1],6,7v1[8:1],7,
{8}
,,2b-5[8:1],2,6-1[8:1],6,2<7[8:1],,
2/7b,,6-3[8:1],6,2-7[8:1],2,6<1[8:1],,
{8}
2b/6,,3-8[8:1],3,7-4[8:1],7,3>8[8:1],,
3/4<7[8:1],,4/3>8[8:1],,3/8>3[8:1],,5-1b[8:1],5xh[96:1],
&inote_6=(192)
{4}
,,,,
{4}5xh[16:3],,,5-1b[4:7],
{4}
,,,,
,,,3h[4:8],
{4}
7,7,7,7,
6,6,6,6,
{4}
5h[4:3]/2,2,2,2,
6h[4:3]/3,3,3,3,
{8}
73,4,56,,2,2,6,5,
34,2,6,7,2,3,45,6,
{8}
71,2,3,7,6,5,43,3,
25,6,74,3,2,2,5-1b[8:1],5,
{8}
,2,2>5[4:1],,5<8[4:1],,8>3[4:1],,
3V51[8:3],,6,6-8[8:1],,,,3h[4:1],
{8}
,7,7<4[4:1],,4>1[4:1],,1<6[4:1],,
6V47[16:5],,3,3,,2-5[8:1],8,2,
{8}
,6-3[8:1],8,6,,2-5[8:1],8,2,
,6-3[8:1],8,6,,2>5[8:1],7,2,
{8}
,8<5[8:1],2,8,,3q7[8:1],5-1b[4:3],3,
,,,,,,,,
{8}
7/2>6[8:3],,7,,7,,7,4,
7,3,7,2,7-5[12:1],,1,,
{8}
2/4<8[8:3],,2,,2,,2,8-5[8:1],
2,,2,,2/4-7[8:1],,2,,
{8}
6/4>8[8:3],,6,,6,,6,8,
6,1,6,2,6-8[12:1],,2,,
{8}
3/1<5[8:3],,3,,3,,3,5-8[8:1],
3,,3,7>2[8:1],3,,3,,
{8}
8h[8:1],4,8h[8:1],5,8h[8:1],4,8h[8:1],3,
2-8[12:1]/7,,7-5[12:1]*-3[8:1],,7,,2,,
{8}
1h[8:1],5,1h[8:1],4,1h[8:1],5,1h[8:1],6,
1-3[12:1],7,1-5[8:1],7,1,,73,,
{8}
6h[8:1],1,5h[8:1],8,5h[8:1],1,5h[8:1],2,
3-5[12:1]/6,,6-8[12:1]*-2[8:1],,6,,8,,
{8}
3h[8:1],1,4h[8:1],2,4h[8:1],1,4h[8:1],8,
3-1[8:1],7,3-7[8:1],6,3,5-1b[8:1],,54,
{8}
,2-4[8:1],8,2,6,6-8[8:1],5,6,
1,1,5,3,7-1[8:1]*-5[8:1],,,,
{8}
2-4[8:1],6,2,8,5-2[8:1],6,5,8h[4:1],
,2,6,4,8-2[8:1]*-6[8:1],,,,
{8}
3,3-5[8:1],7,3,6,6-8[8:1],5,6,
1,1,5,3,7-1[8:1]*-5[8:1],,,,
{8}
2,2,35,35,46,46,8-5>4[6:1],8,
3>6[4:1],,,,5-1b[8:1],,,,
{8}
5bx-2[8:1],,7/5bx-8[8:1],,3/5bx-2[8:1],,7/5bx,,
6bx<1[8:1],1>4[8:1],6bx/1,,5-2[8:1]*-8[8:1],,,,
{8}
4bx-7[8:1],,2/4bx-1[8:1],,6/4bx-7[8:1],,2/4bx,,
3bx>8[8:1],8<5[8:1],3bx/8,,4-7[8:1]*-1[8:1],,,,
{24}
6bx/2bx,3,4,5,6,7,8,1,2,3bx-6-1[4:1]/7bx-4-1[4:1],,,{8},,,,
{8}8bx<5[8:1],,8x/3bx>8[8:1],,3x/6bx-3[8:1],,6x/7bx>5[4:2],,
{8}
5bx,,6,6,7,7,8-4[8:1],4,
3x,2,1,8,7,6,5-1b[8:1],4xh[8:1],
{8}
,2,7x,4,5/3x,2,6x/4,7,
5x/8>6[4:1],3,8x/2h[4:1],,,1,7,8x/2,
{8}
1-4[8:1],6x,6x-1[8:1],,3x<6[8:1],,2,1,
8>3[8:1],7,6,5h[4:1],,4-2[8:1],,6,
{16},,1,7,8,,6bxh[8:1],,,,4,5,3,,2bxh[8:1],,
,8,1-5[8:1],,27,,1bx/8`Cf,,,,8,,7,,6x>3[8:1],,
{8},2,1,8x>3[8:1],,7,6,5b-1b[8:3],
,,3,,3,,3,3x-8[8:1],
,5,6,7x>2[8:1],,6,5,4x-1[8:1],
,6,7,8x-4[8:1],,1,2,3x<6[8:1],
,2,1,8x-5[8:1],,2,3,4x-7[8:1],
,1,1<6[8:1]*>4[8:1],,,,,6bx-1[8:1],
,2x-5[8:1],3,2bx-8[8:1],,7x-4[8:1],6,7bx-1[8:1],
,2x-6[8:1],3,8x/2bx,,8,7,6x-1[8:1],
,6/4,3,2xV48[4:1],,2/7,6,5x-1b[8:1],
{8}
,,2b,2,3/7,6,5/4,3,
6/5,7,8/1,2,5/3,6,7/4-1[8:1],,
{8}
,,8b,8,7/2,3,6/4,5,
4/3,2,8/1,7,5/6,4,3/8-5[8:1],,
{8}
,,2b-4[12:1],2,5-7[12:1],5,2<7[8:1],,
2/6b,,6-4[12:1],6,3-1[12:1],3,6<1[8:1],,
{8}
2b/6,,3-5[12:1],3,6-8[12:1],6,3>8[8:1],,
5-2[8:1],,7-4[8:1],,8>3[8:1],,5-1b[8:1],5,
{8}
,,3b,7,6/2,3,4/5,6,
3/4,2,1/8,7,4/6,3,2/5-8[8:1],,
{8}
,,1b,8,2/7,6,3/5,4,
5/6,7,1/8,2,4/3,5,6/1-4[8:1],,
{8}
,,7b-5[12:1],7,4-2[12:1],4,7>2[8:1],,
7/3b,,3-5[12:1],3,6-8[12:1],6,3>8[8:1],,
{8}
7b/3,,6-4[12:1],6,3-1[12:1],3,6<1[8:1],,
4>1[8:1],,6-1[8:1],,4-1[8:1],,5-1b[8:1],5,
{8}
,,3b,4,3/5,2,1/8,7,
6/4,5,6/4,5,3<7[6:1],3,2q8[6:1],2,
{8}
,,6b,5,6/4,7,8/1,2,
3/5,4,3/5,4,6V42[6:1],6,7v1[8:1],7,
{8}
,,2bx-5[8:1],2,6-1[8:1],6,2<7[8:1],,
2/6b,,6-3[8:1],6,2-7[8:1],2,6<1[8:1],,
{8}
2b/6,,3-8[8:1],3,7-4[8:1],7,3>8[8:1],,
3/4<7[8:1],,4/3>8[8:1],,3/8>3[8:1],,5-1b[8:1],5,
