&title=なわとび
&artist=小泉 花陽 (CV:久保 ユリカ)
&first=0.09
&des=Ragna
&lv_5=13
&inote_5=(76){1},,{4},,4h[8:1]/5>5[4:19],
4h[8:1],3h[8:1],3h[8:1],
2h[8:1],2h[8:1],1h[8:1],1h[8:1],
8h[8:1],8h[8:1],7h[8:1],7h[8:1],
6h[8:1],6h[8:1],4h[8:1],3h[8:1],
2h[8:1],1h[8:1],8h[8:1],7-3[4:3],
{1},{4}4<3[4:7],
5,6,7,
8,1,2,4,
5V31[1:1],4,3,2,
{8}8,8<1[16:7]*V64[4:1],8,8,{4},5h[4:1],
1V75[1:1],8,7,6,
{8}4,4>5[16:7]*V28[4:1],4,4,{4},1h[4:1],
5>6[4:7],4,3,2,
1,8,7,5,
4<3[4:7],5<3[2:3],6<3[4:5],7>3[1:1],
8>3[4:3],1>3[2:1],2>3[4:1],4,
5V31[1:1],4,3-1[2:1],2,
{8}8,8<1[16:7]*V64[4:1]*-6[8:1]*<6[8:1]*<5[16:3]*<4[4:1]*<3[16:5]*<2[8:3],8,8,{4},5h[4:1],
1V75[1:1],8,7-5[2:1],6,
{8}4,4>5[16:7]*V28[4:1]*-2[8:1]*>2[8:1]*>1[16:3]*>8[4:1]*>7[16:5]*>6[8:3],4,4,{4},1h[4:1],
5>6[4:7],4>6[2:3],3>6[4:5],2<6[1:1],
1<6[4:3],8<6[2:1],7<6[4:1],5,
4V68[2:1],6V82[2:1],8V24[2:1],2-4[4:1],
{8}5,5<4[16:7]*<1[4:1]*s1[4:1],5,5,{4},8h[2:1],
{8}5,5<4[16:7]*<1[4:1]*s1[4:1],5,5,{4},8h[4:1],
4<2[2:1],7>5[2:1],2>5[4:1],5<5[2:1],
1>1[2:1],5<1[4:1],{2}1-5[8:1]*w5[8:1],
{4}5V71[4:1],5qq5[4:1]/1V35[4:1],{2}5-7[8:1],
{4}1V35[4:1],5V71[4:1]/1qq3[8:3],{2}1-3[8:1],
{4}5<1[4:1],5qq5[4:1]/1>5[4:1],{2}5<7[8:1],
{4}1>5[4:1],5<1[4:1]/1qq3[8:3],{2}1>3[8:1],
{4}5V31[4:1],5p5[4:1]/1V75[4:1],{2}5-2[8:1],
{4}1V75[4:1],5V31[4:1]/1p6[8:3],{2}1-6[8:1],
{4}5>1[4:1],5p5[4:1]/1<5[4:1],{2}5>2[8:1],
{4}1<5[4:1],5>1[4:1]/1p6[8:3],{2}1<6[8:1],
{4}5V31[4:1],5qq5[4:1]/1V75[4:1],{2}5-1[8:1],
{4}1V75[4:1],5V31[4:1]/1qq5[8:3],{2}1-5[8:1],
{4}5>1[4:1],5qq5[4:1]/1<5[4:1],{2}5-1[8:1],
{4}1<5[4:1],5>1[4:1]/1qq5[8:3],{2}1-5[8:1],
{1}6bv1[4:3]/4bv1[4:3],,E
