&title=蛍はいなかった
&artist=はるまきごはん
&first=0
&des=Yell0wduck
&lv_5=13+
&inote_5=(206){1},{1}4pp4[4:5]*qq4[4:5],,1pp5[4:5]/5<4[4:5],,
{8}8h[32:1],,3,6,4,2,,8h[32:1],,,,3,3>8[4:1],,6,6>3[4:1],,,2,2pp4[4:1],,,8pp7[4:3],7<8[8:5],,,,,,,,,
36,,,,5<8[4:1],4,3,2,1pp8[4:3],,7,7h[8:5],,,,,,,,,4,5,6,7,8h[4:1],,1qq8[8:3],1>5[8:2],,,,,
7h[32:1],,3,6,4,2,,8h[32:1],,,,,5<8[4:1],4,3,2>5[4:1],,,8,8qq1[1:1],,5,4,3,2,,3,3,,,2,,
2-4[8:1]/1,,6,6,8/7-5[8:1],,3,2,1>4[8:1],8,7,6,5-1[8:1]*-3[8:1],,5,,
7-5[8:1]/8,,3,3,1/2-4[8:1],,6,7,8<5[8:1],1,2,3,4-8[8:1]*<7[8:1],,4,,
25,3,47,6,2/5-7[8:1],,2,2-4[8:1],,8-2[8:1],,5,5w1[8:1],,5,,
3>1[8:1]/4,,7,7,5/6<8[8:1],,3,2,1>4[8:1],8,7,6,5w1[8:1],,,,
3b<2[1:1]/6bpp5[1:1],,,,,,,,,,,,,,,,6>7[1:1]/4q5[1:1],,,,,,,,,,,,,,,,
6h[32:1],,4,5,3,4,,7h[32:1],,,,,
5,6,7,8<5[4:1],,,3,2>5[4:1],,,6,7q1[8:5],,,2,3h[8:3],,,,,
2b-5[8:1]/5b-8[8:1],,,,7<4[8:1]/4>1[8:1],,,,2-5[4:1],,5V38[8:3],6,7-4[8:1],,,,
1>4[8:1]/5<8[8:1],,,,3,4,5,6,27,,18,1v3[8:1]/8v6[8:1],,,,27,,,,,
4,5,6,7,3/8p6[2:1]*p6[2:1],,,,,,,,15,,16,,17,,18,,18,2,38,7,
2-5[8:1],5>8[4:1],2,8pp4[8:5],7b,,,,,,7,,
1-3[8:1]/4,,6,7,8<5[8:1]/5,,3,2,1>4[4:1]/4<7[4:1],,,,,,
18,,7<4[8:1],,1,2<7[8:1],,4,5qq8[2:1]*<1[2:1],,,,,,,,81,,2>5[8:1],,8,7>2[8:1],,5,4pp7[2:1]*qq1[2:1],,,,,,,,
2b/7b,4v1[8:1]/5<8[8:1],,,,,7-4[8:1],4<1[4:1],7,1qq6[8:5],2b,,,,,,
3,,8-6[8:1],,4,3>8[8:1],,5,6,7<4[8:1],,3,2,1>4[8:1],,7,6,5>7[2:1]*pp4[2:1],
,,,,,,2,,8b-3[8:1]*-5[8:1],,8b,,4b>1[8:1]*<7[8:1],,4b,,2b-5[8:1]/6b-1[8:1],,
2b/6b,,3b>8[8:1]/7b<4[8:1],,3b/7bpp4[4:3]*pp4[4:3],,,,,,,,,,
8<5[8:1]*<5[8:1],1,2,3,4>1[8:1]*>1[8:1],5,6,7,8bp6[8:3],,2,3,4>1[4:1],,7,,
8<5[4:1],,5p4[8:3],,3,,,,1q3[8:3],,6,7,8<5[8:1],,2,,4>1[4:1],,1p8[8:3],,7,,,,
7b<4[8:1],,73,2,1>4[8:1],,61,7,8-4[8:1],,83,2,1-5[8:1],,
5,6,7<4[8:1],7,2-6[8:1],2,8-3[8:1],8,5-1[8:1],5,7-4[8:1],7,3-8[8:1],3,5<8[8:1],5,1,1,
7<4[8:1],,87,,2>5[8:1],,21,,6<1[8:1],,65,,3>8[8:1],,43,,
5pp5[4:3]*qq5[4:3],,,,,,,,,,2q6[8:1],,8p4[8:1],,1pp5[8:5],,7b<4[8:3],,,,,,
2>5[4:1],,5,,7q1[2:1],7,,2,,,4>2[8:1],,1,,5<7[8:1],,8,,3>1[8:1],,8,,6<8[8:1],,1,1,
2-5[8:1],,12,,7-4[8:1],,78,,2>5[8:1],,12,,7<4[8:1],,78,,
2bpp5[8:8],,7,7,,8<5[8:3],,,,,,,
2qq5[1:2]/6,,5,,4b<2[2:3],,,,,,,,,,,,,,,,
6>3[1:1],,,,,,,,6>3[1:1],,,,,,,,6>3[1:1],,,,,,,,6p4[1:1],,,,,,,,
3<6[1:1],,,,,,,,3<6[1:1],,,,,,,,3<6[1:1],,,,,,,,3qq5[4:3],,,,,,,,
6h[1:3],,,,,,,,4h[1:2],,,,,,,,,,,,,,,,,,,,,,,,
3qq5[4:5]/6pp4[4:5],,,,,,,,,,,,,,45,,45,3,45,6,34,2,56,7,34,28,56,17,
4>2[8:1]/6<8[8:1],2-6[8:1]/8-4[8:1],4bqq5[2:1]/6bpp5[2:1],,,,,,,,
1/3<6[8:1],,8-4[8:1],,2-5[8:1],2,7-4[8:1],,1-5[8:1],1,6>8[8:3]*p8[8:3],,,,,,
36,,2>5[8:1],1,8,7>2[8:1],6,5,4-1[8:1]*-7[8:1],,4,,8>3[8:1]*<5[8:1],,8,,
26,,7<4[8:1],8,1,2<7[8:1],3,4,5pp8[2:1],,45,,2,,1,,2b/7b,4pp6[8:1]/5qq3[8:1],,,,,
3-8[8:1],8>4[4:1],3,4qq1[8:5],5b<8[8:2],,,,,,
7,,2>5[8:1],,82,7>2[8:1],,67,5,4<7[8:1],,34,2,1pp5[4:3],,7,6,5<8[4:1],,,,,,,
1,,3b-8[8:1]/4b-7[8:1],,3b/4b,,1b-6[8:1]/2b-5[8:1],,1b/2b,,
3b-8[8:1]/7b-4[8:1],,3b/7b,,2b-5[8:1]/6b-1[8:1],,2bpp8[1:1]/6bpp4[1:1],,,,,,,,,,,,,,
1h[32:1],,1h[32:1],,
7<4[8:1]/1,,37,2,1>4[8:1],,18,7,6-1[8:1],5-2[8:1],6,5,8-3[8:1]*-5[8:1],,8,,
2>5[8:1]/1,,62,7,8<5[8:1],,81,2,3-8[8:1],4-7[8:1],3,4,1<6[8:1]*>4[8:1],,1,,
35,2,35,6,7-5[8:1]/5,,8,8-4[8:1],,1-3[8:1],,5,5w1[8:1],,5,,
7<4[8:1]/4,,73,2,1>4[8:1],,17,6,5<8[8:1],4,3,2,1w5[8:1],,,,
3b<8[8:10]/7bq1[8:10],,,,,,,,,,,,,,,,6>8[4:5]/3qq8[4:5],,,,,,,,,,,,,,,,
7h[32:1],,3,5,4,3,,7h[32:1],,,,,,,,,3qq4[2:1],,,,5pp4[2:1],,,,3>5[2:1],,,,,,,,
{1}6<3[4:5]*q3[4:5],,2<6[4:5]*p5[4:5],,{8}2h[2:1],,,,4h[1:1],,,,5h[4:3],,,,,,,E
