&title=ナイトピア
&artist=LonePi feat. 桃寝ちのい
&first=-0.256
&des=57qx55uQ
&lv_5=13+
&des_5=57qx55uQ
&inote_5=
(162){4},,,,,,,,3b/5b-7[8:1],
3,3/8-4[8:1],3,
3/5-7[8:1],3/5-1[8:1],3,3,
7/2-4[8:1],7,7/1-5[8:1],7,
7/2>5[8:1],7/2pp2[4:1],7,7,
1/8-6[8:1],1,1/5v8[8:1],1,
1/7<4[8:1],1/7qq7[4:1],1,1,
5/2-4[8:1],5,5/1V73[4:1],5,
{8}5h[2:1],E3,E2,E1,E8,E7,{4}E6,
2x/7x-5[8:1],2,2/8-4[8:1],2,
2/1-7[8:1],2/1-5[8:1],2,2,
4/3-1[8:1],4,4/3-7[8:1],4,
4/8-6[8:1],4/8-3[8:1],4,4,
3/5<8[8:1],3,3/1p5[8:1],3,
3/4V68[8:1],3/4-8-2[4:1],3,3,
5/4-8[8:1],5,5/1-4[8:1],5<1[4:1],
1>5[4:1],5q2[4:1],2,3,
5/4-2[8:1],{8}7,7,{4}8-6[8:1],{8}3,3,
4v1[8:1],5,{4}4<1[4:1],{2}D3h[4:1]/E3h[4:1],
{4}8<6[8:1],{8}3,3,{4}4>2[8:1],{8}7,7,
8v5[8:1],1,{4}8>5[4:1],{2}E7h[4:1]/D7h[4:1],
{4}4v2[8:1],{8}6,7,{4}8v6[8:1],{8}2,3,
4v1[8:1],5,{4}4<5<6<7>8>1[4:1],{2}E3h[4:1]/D3h[4:1],
{4}3/8-4[8:1],{8}8/3,2-6[8:1],,2/6<4[8:5],{4}5bh[4:3],
{16},,,,,,,,,,E4,B6,{8}E3,C,
{4}8x-4[8:1]/7x-4[8:1],8/7,{16}3-7[8:1],,,5,{4}3,
{16}6/8>3[8:1],,,7,{8}8qq4[8:3],7,{4}8,B2/E3/B3,
{16}2-4[8:1],,,1,{4}2,{16}1-5[8:1],,,8,{4}1,
{16}2>5[8:1],,,1,{8}2pp5[8:3],1,{4}2,6<2[4:1],
2<6[4:1],C,{16}3-5[8:1],,,4,{4}3,
{16}6-8[8:1],,,5,{8}6-2[8:1],4,{4}6,1-4[8:1]*-6[8:1],
B7/C/B3,7z3[4:1],2,1-7[8:1],
{16}1-3[8:1],,,6,{8}1-5[8:1],4,{4}1b,B3/E8/E7/E3/E4/B7f/D3/D4/D8/D7,
1-5[8:1],{8}8/1,8,2-6[8:1],7,7/2,7,
{4}3<6[8:1],7p2[8:1],1-5[8:1],8-4[8:1],
1,{8}2>5[8:1],2,6,6,7>2[4:1],7,
{4}2>5[4:1],5<8[16:3],{16}E1,E2,E3,E4,1/E5,2,3,4,
{4}5/1v4[8:1],{8}1/8,8,7p3[8:1],2,2/7,2,
{4}1-4[8:1],5<8[8:1]/1-5[8:1],1/5,1-5[8:1]/4>1[8:1],
1/4,{8}6,6,4-1[8:1],4,5,6,
{4}7-4[8:1],7/8pp3[8:3],{2}8/6h[4:1],
{4}2b/4b<7[8:1],{8}3/4,3,4q8[8:1],2,2/4,2,
{4}1-5[8:1],6-8[8:1],4-2[8:1],1-5[8:1],
3h[4:1],{8}4<7[8:1],4,2,2,1>5[4:1],1,
{4}5<1[4:1],1>4[16:3],{16}E5,E6,E7,E8,5/E1,6,7,8,
{4}1/5v8[8:1],{8}2/5,2,6-2[8:1],3,3/6,3,
{4}4/1-7b[8:1],5-3b[8:1]/1-5b[8:1],1/5,2h[4:1],
4-7[8:1],{8}4/3,3,2-5[8:1],8,2/8,8,
{4}7<3[4:1],3q1[4:1],1>5[4:1],C,
1h[4:1],E8/A7,5h[4:1],E4/A3,
2h[4:1],B6/A6,{8}7,7,{4}B3/A3,
4h[4:1],E6/A6,8h[4:1],A2/E2,
3h[4:1],B7/A7,6h[4:1],B2/A2,
{2}7x-2[8:1]/1xq5[8:1],1x-6[8:1]*p5[8:1],
8x-5[8:1]*p4[8:1],{8}2x-6[8:1],8xp3[8:1],{4}A2,
{2}2xv5[8:1]*-8[8:1],{4}7h[4:1],6,
{8}4h[8:1],{16}5,4,{8}5,3,6h[8:1],4h[8:1],5h[8:1],3h[8:1],
{4}4-8b[2:1],{8},,,,1,1,
{1}1b>8[4:15],
B7,
B5,
{2}B3,B1,
{1}5<3[4:11],
{2}E2,B3,
{1}E5,
{4}5h[4:1],4,{8}3p7[4:1],3,{4}7>2[4:1],
{8}6h[4:1],,,5,4p8[4:1],4,{4}8>3[4:1],
{8}7h[4:1],,,6,5q3[4:1],5,{4}3>7[4:1],
4h[8:1],{8}3,3,4,4,5,5,
6,6,1,1,8,8,{4}2>5[8:1],
{8}6h[4:1],,,7,1>4[4:1],1,{4}4q2[4:1],
{8}5h[4:1],,,6,7>2[4:1],7,{4}2q8[4:1],
{8}3h[4:1],,,4,7V51[4:1],5,7,4,
{4}3h[4:1],{8}2-5[8:1],1,{4}8/2,A7/B7/B6/A6/D7,
1bh/8bh,{8}4/2x,{16}2,4,{8}3x,{16}3,4,{8}2x,{16}2,4,
{8}3x,{16}3,4,{8}2x,{16}2,4,{8}1x,{16}1,4,{8}2x,2,
5/7x,{16}7,5,{8}6x,{16}6,5,{8}7x,{16}7,5,{8}6x,{16}6,5,
{8}7x,{16}7,5,{8}8x,{16}8,5,{8}7x,{16}7,5,{8}6x,6,
5/4x,{16}3,3,{8}4x,{16}2,2,{8}4x,{16}1,1,{8}4x,{16}2,2,
{8}4x,{16}5,5,{8}4x,{16}6,6,{8}4x,{16}7,7,{8}4x,{16}8,8,
{8}1h[2:1],B7,C,B3,5h[4:1],B2,{4}B1,
{8}7/8,{16}6,5,{8}6,{16}3,4,{8}3,5/2,{32}6,7,8,1,2,3,4,5,
{4}6/1-4[8:1]*-5[8:1],1,{16}7-4[8:1],,,8,{8}7,1,
{16}2-4[8:1],,,8,{8}2,7,{4}B2h[4:1]/B1h[4:1]/E2h[4:1],B6/E6/B5,
{16}7-5[8:1],,,8,{4}7,{16}8-4[8:1],,,1,{4}8,
{16}7<4[8:1],,,1,{8}7qq4[8:3],8,{4}7,3,
1-5[8:1]/2-6[8:1],1/2,{16}8<5[8:1],,,1,{4}8,
{16}4-8[8:1],,,5,{8}4-2[8:1],6,{4}4,1/7,
{16}8-5[8:1],,,1,{4}8,{16}4-1[8:1],,,5,{4}4,
{16}6h[16:3],,,4,{8}5w1b[8:1],7/3,{4}5b,D4f/A3/A4/E4/E7/A6/D7/A7,
{16}8-4[8:1],,,1,{8}8,1,7-4[8:1],2,2/7,2,
{4}6-4[8:1],3q7[8:1],8>3[8:1],4-8[8:1],
5,{8}5<8[8:1],5,1,1,2>5[4:1],2,
{4}5<8[4:1],8>3[16:3],{16}E4,E5,E6,E7,4/E8,5,6,7,
{4}8/4v7[8:1],{8}4/1,1,2q6[8:1],8,2/8,8,
{4}7-4[8:1],7-3[8:1]/3>8[8:1],3/7,7<4[8:1]/3-7[8:1],
7/3,{8}2,2,8-5[8:1],8,1,2,
{4}3-8[8:1],3/4pp7[8:3],{2}4/2h[4:1],
{4}6b/8b-3[8:1],{8}8/7,7,8-4[8:1],6,8/6,6,
{4}5<8[8:1],3>8[8:1],7-4[8:1],2-5[8:1],
7h[4:1],{8}1>4[8:1],1,8,8,7<3[4:1],7,
{4}3>7[4:1],7<4[16:3],{16}E4,E3,E2,E1,3/E8,2,1,8,
{4}7/3v6[8:1],{8}5/3,5,2<7[8:1],6,6/2,6,
{4}3-8[8:1]*-5[8:1],3-7[8:1],3/6,5h[4:1],
1-4[8:1],{8}1/7,7,6>3[8:1],2,6/2,2,
1h[2:1],8,8,8,{32}8b,7,6,5,4,3,2,1,8,7,6,5,4,3,2,1,
{4}Cf/8<5[8:1],{8}8/1,1,2>5[8:1],7,2/7,7,
{4}6-2[8:1],6/4-8[8:1],4/7-2[8:1]*<4[8:1],7-3[8:1],
7/1h[4:1],{8}8,8,7<4[8:1],2v4[8:1],7,2,
{4}8h[4:1],1>4[16:3],{16}E5,E6,E7,E8,5/E1,6,7,8,
{4}1/5<8[8:1],{8}5/4,4,3p7[8:1],6,6/3,6,
{4}5-1[8:1],2-4[8:1]*-6[8:1],2,8h[4:1],
1-5[8:1],{8}1/6,6,7-4[8:1],3,7/3,3,
{4}2<6[4:1],6>2[4:1],{2}8h[4:1],
{48}8b/1b,7bx/2bx,6bx/3bx,5bx/4bx,,,,,,,,,{8}3,3,5-8[8:1],4,4/5,4,
{4}3>8[8:1],3/7v4[8:1],7/3v8[8:1],3/7<4[8:1],
7/1h[4:1],{8}8,8,2-5[8:1],6-8[8:1],2,6,
{4}1h[4:1],5<8[16:3],{16}E1,E2,E3,E4,1/E5,2,3,4,
{4}5/1-5[8:1],{8}8,7,6-2[8:1],4,4,4,
{4}3V51b[4:1],3/7-1b[8:1],7,2h[4:1],
8<5[8:1],{8}1,2,3v8[8:1],4,3/5,6,
{4}7V51[4:1],1,{8}2,2,{32}8,7,6,5,1,2,3,4,
{4}8b-6[8:1],E4/A3,1-3[8:1],E6/A6,
7-5[8:1],D4/A4,{8}2-4[8:1],2,{4}A5/D6,
6<8[8:1],D2/A1,3>1[8:1],A8/D8,
5<7[8:1],E2/A2,4>2[8:1],E8/A7,
6h[4:1],A1/B1,3h[4:1],A8/B8,
5h[4:1],A2/B2,{8}4,4,{4}A7/B7,
8h[4:1],B4/A4,1h[4:1],B5/A5,
{8}6h[8:1],4,3h[8:1],{16}5,4,{8}6h[4:1],5,3h[4:1],4,
{4}5-2[8:1],4-7[8:1],6-1[8:1],3-8[8:1],
5-2[8:1],4-7[8:1],6-1[8:1],3-8[8:1],
5-2[8:1],4-7[8:1],8-3[8:1],1-6[8:1],
5-2[8:1],4-7[8:1],8-3[8:1],1-6[8:1],
8,3-8[8:1],5-2[8:1],7-4[8:1],
1-6[8:1],3-8[8:1],5-2[8:1],7-4[8:1],
1-6[8:1],3-8[8:1],5-2[8:1],7-4[8:1],
1-6[8:1],3<2[4:15],{32}3,E4,B4,B5,{8}E6,
E
