&title=百花は月下に散りぬるを
&artist=花咲夜
&first=0
&des=「残月」
&wholebpm=178
&lv_5=13+
&inote_1=
&inote_5=(178)
{1}
,,
{4}
4pp5[8:5],,,1,
1qq8[8:5],,,,
5qq4[8:5],,,8,
{16}
8h[8:4],,,,,,2,,
{48}
B2,Cf,B6,,,,,,,,,,
{16}
,,,,
{16}
8b/1b,,,,6,4,5,,2,,3-5[8:1]/4,,,,7-3[8:1],,
,,1-4[8:1]*-6[8:1],,,,,,,,8x,,8x,,,,
{8}
2,2h[8:2],4,4h[8:2],5,5h[8:1],6,6-4[8:1],
,6^8[8:1],,3^8[8:1]*-5[8:1],,3x,,,
{16}
1/8,,,,3,5,4,,7,,6-4[8:1]/5,,,,2-6[8:1],,
,,8w4b[8:1],,,,,,,,1x,,1x,,,,
{8}
7,7h[8:2],5,5h[8:2],4,4h[8:1],3,3>7[32:5],
,6,5,4pp5[32:7],,,1x,,
{8}
4-2[8:1]/6,,4/6-8[8:1],,5,5,,8h[8:2],
{8}
,7^4[6:1],5^2[6:1],3,,1,1,,
{8}
5-7[8:1]/3,,5/3-1[8:1],,4,4,,1h[8:2],
{8}
,2^5[6:1],4^7[6:1],6,,8,8h[8:14],,
{4}
6bh[8:12],,,,
{8}
,,,,,3bx^8b[8:1]/1x,,,
{8}
5,,78,,4,4,2h[8:7]/1,,
{8}
E6,E6,,A8/E8/D8,,B3/D4/E4/A3,,,
{8}
6-8[8:1]*-1[8:1],,6b,,,8,53,,
{8}
1-4[8:1]/2-4[8:1],,1b/2b,,
{16}
,,3,4,25,,,,
{8}
1-5[8:1],1,6,6,2-4[8:1],2,5,5,
{8}
1-5[8:1],1,6,6,7-4b[8:1]/3-8b[8:1],,73,,
{8}
1-5[8:1],1,6-8[8:1],6,2-4[8:1],2,5-1[8:1],5,
{8}
3>7b[6:1]*p6b[6:1],,A2/A3/D3f,,,45,45,,
{8}
1,,34,,8,8,65,,
{8}
1,,3,34,,8,65,,
{8}
3,,17,,6,6,82,,
{8}
3x,,1,1x/7x,,6,82,,
{8}
4-2[8:1]*-8[8:1],,4b,,,1,64,,
{8}
7-5[8:1]/1-5[8:1],,7b/1b,,
{16}
,,6,5,84,,,,
{8}
7-3[8:1],7,2,2,6-4[8:1],6,3,3,
{8}
7-3[8:1],7,2,2,1^4b[8:1]/5^8b[8:1],,15,,
{8}
7-3[8:1],7,2-8[8:1],2,6-4[8:1],6,3-7[8:1],3,
{8}
5V31b[24:6]*V71b[24:6],,D6/D5/A5f,,,,2,,
{8}
2h[8:3],,,3,1-4[4:1]/4,,,,
{16}
6pp1[16:9],,,6,,,3,,3,,,,,,,,
{8}
7h[8:3],,,6,8-5[4:1]/5,,,,
{16}
4qq8[16:9],,,4,,,7,,7,,,,,,,,
{8}
5qq6[8:4]/4,,,1,1,,,,
{16}
4pp2[16:9],,,5,,,8,,8,,,,,,,,
{8}
3^6[16:5],,,,7p2[8:3],,,,
1>8[8:5]*pp8[8:5],,,,,,,,
{4}
A6,,E8,,A2,,E4,,E1,,C,,
{4}
E7/E3,,
{48}
A3,D3,A2,D2,A1,D1,A8,D8,A7,D7,A6,D6,
{8}
A5,,
{8}
3xq7[6:1]/4x,,6,8h[8:3],,,1,,
{8}
6>2[16:3]/5,,3,1h[8:3],,,8,,
{8}
,34,26,,78,62,,31,
,4/5-8b[8:6],17,,,,,,
{8}
,1x,1x,,
{24}
71,62,53,4pp5[24:5]*qq3[24:5],,,,,,4b,,,
{8}
,,1^6[8:1]/8,,5x,5xw1[8:1],,5b,
{8}
,,8-4[8:1]/1,81,3x,3x>6b[4:1],,E7f/B7/B6,
{8}
,,8qq6[8:1],,4qq2[8:1],,8^5[8:1],,
{8}
4,2,8,6h[8:2],5,3^6[8:1],18,3b/6b,
{8}
,7-3[8:1],4,2,8x,8x^5[8:1]*^3[8:1],,8b,
{8}
,4,2-4[8:1],4-1[8:1],1-6b[8:1]*-7b[8:1],,,,
{8}
1-5[48:5],7v1[8:1]/3v1[8:1],,,
,,8w4[48:5],3v8[8:1]/5v8[8:1],
{8}
,,,,
{32}
8,1,2,3,4-8[8:1],5,6,7,
8,,,,4bx,,,,
{8}
,3q7[8:1],5,7,1x,1x-6[8:1]*-4[8:1],,1b,
{8}
,5,8-6[8:1],5-8[8:1],8-3b[8:1]*-2b[8:1],,,,
{8}
4bx/5x^6-8[48:5],,,,4x-8[48:5]/3bx,,,
{48}
1bx,2x,3x,4xq1[6:1]*V68[6:1],,,
{8}
,,,,3,1,6,8,
{8}
,2,3/4-2[8:1],,5/4-8[8:1],,1x,1x,
,7,6/5-7[8:1],,4/5-1[8:1],,85,,
{8}
1x/2x,5x^2[8:1],,5/6,1x^6[8:1],,1/2,5x^2[8:1],
,5/6,1xqq4[16:5],,4,,,,
{8}
1/2b,7/3b,,6/5b,7/3b,,8/1b,6/3b,
,5/4b,7-4[8:1]/2b-5b[8:1],,Cf,,,,
{16}
1/8,,,,6,5,7,,2,,3-5[8:1]/4,,,,6-2[8:1],,
,,8-3[8:1]*-5[8:1],,,,,,,,1x,,1x,,,,
{8}
2,2h[8:2],4,4h[8:2],5,5,7,7^1[8:1]/3^1[8:1],
,7-5b[8:1]/3-5b[8:1],,3>7[16:3]/7,,5x/3x,,,
{16}
8/1,,,,3,4,2,,7,,6-4[8:1]/5,,,,3-7[8:1],,
,,1w5b[8:1],,,,,,,,8x,,8x,,,,
{8}
7,7h[8:2],5,5h[8:2],4,4h[8:1],2,3-8[8:1],
,6,5,4-6v1[32:7],,,1x,,
{16}
2b/8b,,,,3,4,1,,7,,6-8[8:1]/4,,,,5-1[8:1]/6,,
,,4^7[8:1]*^1[8:1]/5,,,,4,,,,8x,,8x,,,,
{8}
6h[8:2],5,4,3,7h[8:2],5,4,2^8b[8:1]/6^8b[8:1],
,2-5[8:1]/6-3[8:1],,6<2[16:3]/2,,4x/6x,,,
{16}
7/1,,,,6,5,8,,2,,3-1[8:1]/5,,,,4-8[8:1]/3,,
,,5^2b[8:1]*^8b[8:1]/4,,,,5,,,,1x,,1x,,,,
{8}
3h[8:2],4,5,6,2h[8:2],4,5,7bp3[8:1],
,2,1,8bpp4[16:5],,,5x,,
{8}
6^1[8:1],,6/5-2[8:1],,7,7,,8h[8:2],
{8}
,7^4[8:1],4pp3[16:5],2,,1,1,,
{8}
3^8[8:1]/4,,3/4-7[8:1],,2,2,,5/1V38[8:2],
,8-4[8:1],4-7[8:1],7V52[8:2],6-1[8:1],,,,
C,,,,8bpp1<3[4:11]/4bpp5>7b[4:11],
,,,,,,,,,,,,,,,,,,,,,,,,E
&inote_6=
