&title=Arcahv
&artist=Feryquitous
&des=えども~ん
&first=0
&lv_5=13
&inote_5=
(191)
{1},{4},,*1w5[95.5#16:1],,{1}1b<1[1:2]*>8[2:3],,
{4},,,7h[1:1],,1,2,3qq7[1:2],4h[4:2],,,5h[4:3],,,,6h[1:1],,,,8h[2:1],
{4}5h[4:1],,17,{1}2>2
[4:10]/6>6[4:10],,,
{8}4,3h[8:7],{4},4,5,6^1[2:1],5h[4:3],,,2>7[4:3],,,,1<2[4:6],,,,{8}8,8,{4},,6,{16}7,6,5,4,
{8}1-5[8:1],8,7,,,6,57,,,12,83,,3,2,5,6,
{8}7-4[8:1],8,1,,,1,82,,5,56,47,,5-2[8:1]/6-1[8:1],,56,,
{8}8^3[8:1],1,7,,,5,46,,,34,25,,1-6[8:1],7,1,8,
{8}5^2[8:1],6,5,,,8,16,,,{16},2,{8}83,,65,43,{16}8,1,8,1,
{4}8b<1[7:10],,,{24}4q7[4:6],3,,,,,{4},,,,1q4[4:6],,,6,{6}6,5,6,7,6,5,
{8}1^6[8:1],2h[8:1],1,,,4,23,,,56,74,,8-3[8:1],2,8,1,
{8}4^7[8:1],3,4,,,1,82,,,{16},5,{8}64,{16},4,{8}35,{16}2,3,4v1[6:1],5,6,7,
{4}8<2[1:2],,,1,,,,,2qq7[1:2],,,3,,,,,
{4}1q3[4:3],,,3V15[4:3],,,,,7V51[4:3]/5,,,1<4[4:3],,,3,,
{4}5s1[4:1]/3z7[4:1],,,{8}6,12,,4-7[2:1],,5,,,,,
{4}8s4[4:1]/2z6[4:1],,,{8}5,7p3[4:1]/4,,3v5[4:1],,2,{4}1,{8}34,25,
{4}1z5[4:1]/6s2[4:1],,,{8}3h[8:1]/4h[16:1],8,,4/6h[64:1],3,7-5[8:1]/1,,2h[64:1],,4,
{4}3z7[4:1]/7s3[4:1],,,{8}8,17,6h[8:1],5h[8:1],4h[8:1],3h[8:1],5-1[8:1],,4h[4:1]/5,,2h[2:1],6h[8:3],,,
{16}1h[128:1]/5h[128:1],8h[128:1]/4h[128:1],7pp2[8:5]/3pp6[8:5],6h[128:1]/2h[128:1],5h[128:1]/1h[128:1],8h[128:1]/4h[128:1],
{1}7h[128:1]/3h[128:1],{8},54,6,71,2,3V14[3:1]/5V71[3:1],4,{2},
{8}8h[16:7]/5,,{16}5,4,3,2h[4:1],7,6,5,4,{4}2z6[4:1]/3s7[4:1],,,{8}45,82,,1v3[4:1]/7v6[4:1],,,{4},,
{8}5,6,71,4,3,2,18,{8}2h[8:7]/7h[8:7],{1},1b/8b>8[1:2]*<1[2:3],,
{4},,,5h[1:1],,7,8,1qq5[1:2],2h[4:2],,,3h[4:3],,,,4h[1:1],,,,6h[2:1],
{4}3h[4:1],,75,{1}8>8
[4:10]/4>4[4:10],,,
{8}2,1h[8:7],{4},2,3,4^7[2:1],3h[4:3],,,8>5[4:3],,,,7<8[4:6],,,,{8}6,6,{4},,4,5,
{8}6-2[4:15],,,1,,1,,,2,,,,3,,,,4,,,3,,,8,1,1,,,1,,,3,,
{8}4-8[4:13],,,8,,,7,,5,7,6,,7,,6,,5,,,,4,,,,3,,,2,,,1w5[5.7878#264:1],,
{1}2>8[1:6]/8<2[1:6],,,,,,,{4}
{4}*1w5[47.75#32:1]*w5[47.75#32:1],,,,1b,,,
{8}18,{16}6h[8:1]/8h[8:1],,,7h[8:1]/5h[8:1],,,6h[8:1]/4h[8:1],,,3h[8:1]/5h[8:1],,,2h[8:1]/4h[8:1],,,1h[8:1]/3h[8:1],,,
{8}8-5[8:1]*-3[8:1],17,8,,{16}2,5,3,,{8}1-5[12:1],,{16}15,,8,7,62,,4,,53,,8,,
{8}7,1,5q1[8:1]/2,,{16}4h[4:1],,,,6,5,6,7,6,8,6,1,8,1,7,2,8,1,8,1,{12}7h[64:1],5h[64:1],8h[64:1],3h[64:1],4h[64:1],1w5[8:1],,,{8}1b,,
{12}8<3[2.4:1]/2,
{8},,4>7[2.4:1],,,,{16}5,4,3,2,1,8,7,6,51,48,37,26,{4}5h[8:4]/1h[8:5],,,{8},{4}1-6[8:1]/5-2[8:1],5w1[3:1]/1,,,{8},
{16}3-8[8:1],4,2,5,3,,7,6,5h[8:1]/2,,3,,4h[8:1]/7h[8:1],,,,6-1[8:1],4,7,5,6,,2,3,4h[8:1]/6,,7,,2,,3,,{4}5-8[8:1]/4-1[8:1],45,{16}7,2,6,,
{8}35,4-8[6:1]/6,,6,5-1[8:1],5,2-6[8:1],2,8,8,{4}8-4[8:1]/5-1[8:1],85,{8}7,8,6V84[2:1]*v4[2:1]/2,,,,,,,,
{32}1,2,3,4,5,6,7,8,{16}1b/5b,,,,
{16}7-4[8:1],1,6,8,7,,1,,2,3,4h[8:1]/5,,5,4,7,5,6,,2-5[8:1],8,3,1,2,,8,7,6h[8:1]/1,,2-7[8:1],,2,,5-8[8:1],,5,,1-4[8:1],,1,,7,,7,,
{8}3^6[16:3],5^8[16:3],7^2[16:3],2,,,4,3,2,2-6[8:1]/6,,2/7-3[8:1],,7/4-1[8:1],,8-4[8:1]/4,,1-5[12:1]/8,,15,{16}4-1[8:1]/8-5[8:1],37,26,,{8}84,,
{16}6,4,7,5,6,,1,8,2,8,1,7h[16:17],{1}3h[1:1],{8},,7-4[8:1]/4,,73,2-6[8:1],,26,8b,,,17,,,26,,,35,
{8}4-8[8:1],7,6,5-1[8:1],1,2,3-6[8:1],4,7-2[8:1],7,4<3[3:1],4,8,,,,
{8}2-5[8:1]/7,2,6-1[8:1],6,4-1[8:1],4,8,8,2^5[8:1],1,8,7,6^1[8:1],5,4,3,2-6[8:1],1,8-4[8:1],7,8^3[6:1]/4^7[6:1],,{1}8/4w8[8:5],{4},{1}1b,,,{4},,,
{8}1h[8:1]/8h[8:1],,3V16[6:1]/4b,,7,5h[8:1],{16}3,4,3,2,3,,6,5,6,7,6,,{12}1h[64:1],8h[64:1],2h[64:1],7h[64:1],3h[64:1],6h[64:1],45,45,45,
{8}5V71[6:1]/4b,,2,3h[8:1],{16}7,8,6,4,5,,1,8,2,4,3,,{12}5h[128:1],4h[128:1],6h[128:1],5h[128:1],7h[128:1],4h[128:1],{8}81,8b/1b,
&amsg_time=
&amsg_content=EC~R@SO4
