&title=脳漿炸裂ガール
&artist=れるりり
&first=0
&des=KuSA
&lv_5=14
&inote_5=(155)
{32},
{8},,7>8-3[4:6]/3<4-7[4:6],,,,,,,,,,,,,,,,
6h[4:1],,5h[4:1],,4h[4:1],,3h[1:1],,B6/E7/B7,,B8/B1,,B2,,1b,,
{16}
6,5,7,,7,5,,5,8,,8,4,,4,1,,1-6[8:1],,1,,3-8[8:1],,3,,6x>4[8:1],,6,,E1,,,,
3,4,2,,2,4,,4,1,,1,5,,5,8,,8-3[8:1],,8,,6-1[8:1],,6,,3x<5[8:1],,3,,
1-5[8:1]*-6[8:1],,,,1b,,,,3,4,,6,5,,2,1,,7,8,6,1>4[8:1],,1,,5<8[8:1],,5,,
B4,,C1,,1x-4[8:1]*-5[8:1],,,,1b,,,,6,5,,3,4,,7,8,,2,1,3,
{24}8h[4:3]/B3,B4,B5,B6,,,B3,B4,B5,B6,,,B3,B4,B5,B6,,,{8}1b,,
{16}
6,4,,3,5,,7,5,,2,4,,4/5,,3/4,,2-6b[8:1]/3-7b[8:1],,1,,3/2,,,,
2z6b[8:1]/3v6b[8:1],,1,,2/3,,,,7x-2[8:1],,7x,,5,,4,,7-2[8:1],,7,,B5,,E5,,7-2[8:1],,7,,
6-3[8:1],,6,,7,,7h[4:1],,{32}E8,B8,B1,E2,{16},,3x-6[8:1]/6x-3[8:1],,,,,,,,
{999}4xq1[8:1],{16}5xp8[8:1],,,,C1,,,,7x-5[8:1]/8-4[8:1],,,,
E7/B6/E6/B5/C1f/A7/B7,,,,5xw1[8:1],,,,{32}B5,C1/B3/B7,B2/B8/B1,,{16},,
1x/8x,,2/7,,3/6,,5h[4:2]/4h[4:2],,E1f/B1/B8,,E1f/B1/B8,,E1f/B1/B8,,E1f/B1/B8,,3,,6,5,7,,
3,4,2/5,,4/7,,2-7>2[4:3]/6-3<6[4:3],,,,2b/6b,,,,,,,,,,,,,,
{24}3x,4x,5x,{8}6xh[4:3],,C1,,C1,,
{24}5x/C1,4x,3x,2x,3x,4x,5x/C1,6x,5x,4x,3x,2x,{8}1xh[4:5]/C1,,C1,,C1,,C1,,C1,,
{24}C1,2x,3x,8x,7x,6x,{16}5x,4x,5x,4x,6,,6,,3V14pp4[2:1],,3,,7,,7,,8,,8,,
E1,,B2/B7,,E6/E5/E4,,3x/6x,,4-1[8:1],,4,,5-8[8:1],,5,,
1s5qq5[2:1]*s5pp5[2:1],,1,,6,,6,,,,,,,,3/7,,3p7>1[4:1]/7,,6,,5,,4,,4q8[8:1],,3,,2,,1,,
8x-4b[8:1]/2x-6b[8:1],,,,2/8,,,,4x-8b[8:1]/5x-1b[8:1],,,,4/5,,,,
1x,,1-5-1b[4:1],,7,,7-3-7b[4:1],,C1f,,,,C1f,,,,1-6[4:1],,1xh[4:1],,,,,,2,,2,,2,,2,,
{32}
2bx/C1f,3bx,4bx,5bx,6bx,7bx,8bx,1bx,
2bx/C1f,3bx,4bx,5bx,6bx,7bx,8bx,1bx,
2bx/C1f,3bx,4bx,5bx,6bx,7bx,8bx,1bx,
2bx/C1f,3bx,4bx,5bx,6bx,7bx,8bx,1bx,
{8}2w6bx[4:1],,,,,3,3,4,4,5,5,6,4,3,6qq1-3[8:2]*qq1-7[8:2],5,,,,
,1qq4[8:1]/6-2[8:1],,,,E2,B6,E4,E1,E5,E7,B1,E3,Cf/B4/B5,,,,
4xqq8q4[8:7]*pp8p4[8:7],,,,,,,,,,,2/6,
4bqq3b[16:3]/E8/B8/E7/B7/D8/A7/A8,,,,5bpp6b[16:3]/B1/B2/E2/D2/A1/A2,,,,
{16}3,4,2,6,5,7,4,8,1,7,2,6,3-7[8:1],,,,
8x>3[8:1],,6x,,5-1[8:1],,7,,8>3[8:1],,6,,5-1[8:1],,7,,8>3[8:1],,6,,5-1[8:1],,7,,C1f,,,,2/8,,3/7,,6,4,6,4,5,3,5,3,6,4,5,3,3,5,4,6,2,5,4,7,3,8,1,6,
{24}E1,C1,E5,E8,E7,E6,1x-5[8:1],2x,3x,,,,{8}
4x<7[8:1],2,1-5[8:1],3,4<7[8:1],2,1-5[8:1],3,4<7[8:1],2,
1-5[8:1],3,C1f,,4/6,3/7,{16}2,8,2,8,1,7,1,7,E2,E3,E4,E5,E8,E7,E6,E5,
3x,4x,3x,4x,2x,5x,2x,5x,{24}2x,3x,4x,5x-1[8:1],6x,7x,{8},
{32}5xb<5[2:1]/7xb,,,,{8},,,,,{32},B6,B7,B8,B1,B2,B3,B4,B5,B6,B7,B8,
{8}1x>1>1>1>1>1>1[4:32],,,,,,,,,,,,,,,,,,,,B6,,E6,,
B5/C1,,B7,,B8,,B1/C1,,B3,,B4,,B5/C1,,B7,,B8,,B1/C1,,B3,,B4,,B5/C1,,B6,,B8,,
B1/C1,,B2,,B4,,B5/C1,,B5/C1,,B5/C1,,B5/C1f,,,,4/5,4/5,
3>1[8:1],3,5<7[8:1],5,4>1[8:1],4,5<8p4[8:3],5,1,1,2,2,
3>1[8:1],3,5<7[8:1],5,4>1[8:1],4,5<8V64[8:3],5,1,1,2,2,3,3,
2/4,2/4,1/5,1/5,6/8,6/8,7/5,7/5,4/6,4/6,B2/B3/E3,B2/B3/E3,E7/B6/B7,
E7/B6/B7,E3/B3/E4/B4/A3,B5/E6/A5/E7/A6,E2/A1/E3/A2/B2,A7/B7/E8/B8/A8,
E4/B4/E5/B5/E6,C1/B2/B3/B6/B7,B1/E2/B8/E8/E1,E4/A3/B3/E6/B6/A6,
{48}1bx/8bx,2x/7x,3x/6x,4x-6-8-2-4-6[4:11]/5x,,,,,,,,,{4},,,,,,,,,,,,,3h[4:10],,
A1,A1,A8,A8,7>2v4[2:1],,,,1V35V71[8:5]*V37[8:4],,,,1x-4[4:1]/8x-5[4:1],,,
E3/B2/B1/E1/B8/B7/E7,8-6[8:1],1-5[8:1],2-4[8:1],1-5[8:1],
{16}E7,E8,E1,E2,E3,,,,4x-8[8:1]/5x-1[8:1],,,,{4},1xv2[8:1]/8xv7[8:1],,
5q4[4:1]/4,,B3,B3/C1,B3/C1/B7,3-6>3[4:3]/7-2<7[4:3],3b/7b,,,,
{8}
4-1[8:1],4,5-8[8:1],5,4-2[8:1],4,5-7[8:1],5,4-8[8:1],4,5-1[8:1],5,4-2[8:1],4,
5-7[8:1],5,4-1-5[4:1],4,5<3[4:1],5,8x,,C1f/B6/B5/E7/B7/B8,,1-6[8:1],1,4pp2[8:3],4,
8,8,7,7,{32}E6/3-8-5-3[8:3],B5,B4,E4,{16}3x,,5x,,5x,,6x,,6xh[4:1],,{24}4x,3x,2x,
{8}1x,8x-3[8:1],8,7-4[8:1],7,8v3[8:1],8,7<4[8:1],7,
2>4V62[8:3]*>4V62[8:3],2,7,8,1w5b[8:1],,Cf,,
A2/A1/B1/B2/E1/E2,,A5/A6/E6/B5/B6/E7/E5,,Ch[4:1]/E1,,,,
4/5,3/6,2qq6[8:3]/7pp3[8:3],2/7,,,,,
4x-1[8:1],4,5-8>1-4<5[8:3],5,A2/D3,A2/D3,A2/D3,A2/D3,
{24}6xh[1:1],4x,3x,2x,1x,8x,7x,8x,1x,2x,3x,4x,3x,2x,1x,8x,7x,8x,1x,2x,3x,4x,5x,4x,
{16}3xq7[4:1],,,,,,,,,,2<7>2[8:4],,2,,6,,6,,5,,5,,4,,4,,3,,3,,2/1,,
1V35[2:1]*-7-2-6[2:1]/8,,,,,,,,,,,,,,6x,5x,4h[8:1],,3h[8:1],,2h[8:1],,1h[8:1],,
8h[8:1],,7h[8:1],,6h[8:1],,4,,6-3-7[4:1]/3-6-2[4:1],,,,,,,,,
1x,1,7x,7,5x,5,3x,3,1x,1,2x,2,4x,4,6x,6,,8,,1,,3,,
{12}
2b/5b,B3,E5,6b/1b,B7,E1,7b/4b,B6,B4,3b/8b,B2,E1,
{16}4x,5x,6x,7x,8x,1x,2x,3x,4x,5x,6x,7x,8x-4b[8:1],,,,,,,,,,,,
5v2[12:1],4,,6,5v8[12:1],,6,4,5xv2[12:1],,3,7,5xv8[12:1],,7,3,5,,1x,,
2v3-5[8:1]/8z4[8:1],2/8,,,,,,,3/7,,2/8,,1,8,1,8,2x,4x,2,4,1,8,1,8,5x,7x,5,7,
1,8,2,7,3>8V62[8:3],6,4,5,B5f/B4,,,,B1f/B8,,,,4v7[12:1],5,,3,4v1[12:1],,3,5,4xv7[12:1],,6,2,4xv1[12:1],,2,6,4,,8x,,
7v6-4[8:1]/1s5[8:1],7/1,,,,,,,3x/6x,,2/7,,8,1,8,1,7x,5x,7,5,8,1,8,1,4x,2x,4,2,
4x,5,6,7,2x,3,4,5,{32}8-4[8:1],1,2,3,4,5,6,7,8bx,,,,,,,,
{4}1x>4[8:1]/5x<8[8:1],1p5[8:1],
{32}5x<8[8:1]/1,4x,3x,,,,,,1xp5[8:1]/5x,2x,3x,,,,,,1/5x<8[8:1],4x,3x,,,,,,
5/1xw5b[12:1],2x,3x,,,,,,{16}1b,,,,3/7,,2/6,,5,1,5,2,5,3,5,4,5,4,6,4,7,4,8,4,
1x,8,7,6,3x,2,1,8,{32}5-1[8:1],4,3,2,1,8,7,6,{8}5bx,,
{4}8x<5[8:1]/4x>1[8:1],8q4[8:1],
{32}4x>1[8:1]/8,5x,6x,,,,,,8xq4[8:1]/4x,7x,6x,,,,,,8/4x>1[8:1],5x,6x,,,,,,
4/8xw4b[12:1],7x,6x,,,,,,{16}8b,,,,2/6,,3/7,,8,4,7,3,6,2,5,1,6,2,7,3,8,4,1,5,
8x/4x,73,62,51,8x/4x,15,26,37,{32}
8x/4x,7x/3x,6x/2x,5x/1x,8x-4b[8:1],7x,6x,5x,
4xw8[4:3],3x,2x,1x,8x,B8,Cf,B4,,,,,,,,,{16},,,,,,,,,,,,
5/6,,,,3/4,,,,1/2,,,,7/8,,,,1,,1,2,,2,3,,3,4,,4,5,,5,6,
4-8[8:1],,3,,5-1[8:1],,6,,2<7[8:1],,3,,B4f,,,,8x,,8,7,,7,6,,6,5,,5,4,,
4,3,5-2[8:1],,6,,3-8[8:1],,4,,7>2[8:1],,6,,B5f,,,,
1x,,1,2,,2,3,,3,4,,4,5,,5,6,{24}4h[4:3]/B7,B8,B1,B2,,,B7,B8,B1,B2,,,B7,B8,B1,B2,,,
C1f/B7/B8/B1/B2,,,,,,{16}4x,,2x/3x,,4,6,,6,8,,8,1,,1,2,3b-7b[8:1],,
