&title=暧昧劣情Lover
&artist=電ポルP
&first=0.04
&des=Kinhaku
&lv_5=13+
&inote_5=(132)
{1},
{8}3qq4[8:3],,5,6,7,8,8h[8:2],,
{8}3h[8:2],,5,6pp5[8:3],3,2,1h[8:2],,,,
{8}4,3qq5[8:3],8,7,6-8[8:1],,6,,1-5[8:1],,16,,
{16}7,,3,4,2V48[8:2],,,,
{8}25,6,7V15[8:2],,
{8}27,3,4V28[8:2],,
{8}47,6,5V71[8:2],,
{8}25,3,4-8[8:1],,
{8}6,6h[8:2],,
{8}2,3,4h[8:5],
{8}7,,8,,1<5[8:2],,3,3h[8:2],,,,
{8}C,,2h[4:6],,C,,,,C,,,,C,,Ch[8:7],,,
{8}2,2,,3,3,,
{16}2,4,3-8[8:1],,7,,6,,5,,5b-1[8:1],,,,
{8}C,,3,2h[8:1],4-6[8:1],,1,1h[8:2],,
{8}7,6,25,3,46,7,35,2V48[8:2],,C,6,7-5[8:1],,
{8}3,3h[8:2],,5-2[8:1],6,7,8-4[8:1],8,1-3[8:1],1,C,,
{8}4-6[8:1],3,2-4[8:1],,7,7h[8:2],,
{8}3,2,1,7-4[8:1],7,2-6[8:1],2,8h[8:2],,C,2,2h[8:2],,C,4-2[8:1],,
{8}8,7,6,,25,1<3[8:4],7h[8:5],,,,,,,
{8}2,3qq8[8:3],,7-4[8:1],,7,,,,6h[8:1],
{24}5h[24:4],,,,4h[24:5],,,,,3h[24:6],,,,,,
{8}2<5[8:2],,3,
{24}3,,,,4h[24:5],,,,,5h[24:6],,,,,,6<4b[8:6],,,,,,,,,,,,,,,,,,
{8},,,6,7p4[8:3],,2,,1,,
{16}6,5,7,,2,,2h[8:5],,,,7,,7,,,,
{8}8,8,1s5[8:2]/8,,,,Ch[8:4],,,
{8}2,2,,
{16}3,,3,,
{16}3,4,2,,1x-5[8:1],,,,
{64}1b/7b,Cf,,,
{16},,,46,,7,,3,3,8-4[8:1],,7,,68,,5<8b[8:1],,3x,,2q7[8:1],,1x,,2,,8q4b[8:1],,,,,,
{16}2hx[8:2],,,,5,,3,,6,6,1-5[8:1],,2,,7p2[8:1],,8,,,,
{16}8-4[8:1],,1,,2-5b[8:1],,,,
{16}8x,,7,,6x<1[8:1],,,,
{16}2x,,3,,4xq8[8:2],,,,
{16}8>3[8:2],,,,3<6[8:2],,,,6<1[8:2],,,,1s5[8:2],,,,
{16}5,,6,,7-3[8:1],,,,
{16}7b/3,,4,,5,5,2,,1,,7,,
{16}1x-5[8:1]/8x-4[8:1],,,,1b/8b,,,,1xw5b[8:1],,,,1b,,,,
{32}2,3,4,5,6,7,8,1,2/5b,,,,
{16}7,,2/4V28[8:1],,5,,46,,7x,,8xv3[8:1],,7,,6x/8x,,5-8[8:1],,2-6b[8:1],,1,,,,,,18,,,,
{16}35,,6,,4,4,7-2[8:1],,2,,3,,4-8[8:1],,,,
{16}5-2b[8:1],,6,,57,,,,
{8}8-5[8:1],5-3[8:1],2b,,
{8}1<5[8:1]*>5[8:1],2x,1b,,
{8}2bx-5[8:1],5-8[8:1],2b,,
{8}6bx-2[8:1],2bx<4[8:2],3b,,
{8},,C,,17,6,
{16}4,5,4,,6,,2h[8:3],,8,,,,
{16}6,,37,,4h[8:2]/8,,,,7,,36,,5>5[8:4]/2h[8:4],,,,,,,,,,,,
{16}3,,4,,3/6h[8:2],,,,
{16}2,4,3,5,7xv4[8:1],,,2,7,,3,,3>8[8:1],,,,C,,5V31[8:1],,6,,57,,8,,24,,1,,35,,
{24}2x,3x,4x,6x,7x,8x,1hb[8:2],,,,,,
{16}7,4,6,3,5-1[8:1],,,,
{8}2,3,4xV28[8:2],,5,6,7xV15[8:2],,1,2,3xV17[8:2],,7,6,5xV71[8:2],,4,3,2xV84[8:2],,6,7,8xV63[8:2],,
{8}4,3,2,
{16}1,,,18,,,7h[1:2]/2h[1:4],,,,,,,,,,,,,,,,
{1},,
{2},
{16},,,,,,,,6h[24:1],,,,,,,,3h[24:1],,,,,,,,7h[24:1]/C,,,,,,,,2h[32:1]/C,,,,,,,,1/Cf,,,,
{16}2,4,3,,7,5,6,,4,6,3,7,
{16}2xp6[8:1]*v5[8:1],,,,2b,,,,1xs5[8:1]/8xz4[8:1],,,,1b/8b,,,,
{32}2b,3,4,5,6,7,8,1,2/5bv2[8:1],,
{16},6,,75,,8-3[8:1],,3,,48,,
{16}2x-5[8:1],,6,,2-8[8:1],,6,,2V41[8:2],,7,,,,,,
{16}8b,,,,2,4,3,,7,5,6V82[8:2],,2,,3,,4>8[8:2],,,,7,,6,,5h[8:2],,,,
{8}1-6[8:1]*-4[8:1],2x,1b,,
{8}7x-4[8:1]/3x-8[8:1],2bx/6bx,3b/7b,,
{8}1bpp3b[8:1]/5bpp7b[8:1],2x/6x,1b/5b,,
{8}4bqq5b[8:2]/6bpp5b[8:2],3b/7b,4b/6b,,,,
{8}1h[24:1]/8h[24:1],,47,6,25,3,4>8[8:1],5,
{8}4b/6b,,15,2,37,6,3/5<1b[8:1],2,
{8}3b/5b,,34,2,56,
{16}7,,4,5,4,,2h[8:6]/6h[4:11],,,,,,,,,,,,,,,,
{8}1>1-3-5-7-1>3<5<7>1[8:12],,,,,,,,,,,,,,,
{8}2,2/4-8[8:1],,46,7,8x,1-5[8:1],2,31,2>5[8:1],,2-8[8:1]/7-3[8:1],,27,,45,
{16}2,4,3V17[8:2],,,,
{8}7,6,5V71[8:2],,4,3,2V84[8:2],,8,7,6V82[8:2],,2,3,4-8[8:1],,
{8}5,6,
{16}3,4,3,,6,5,6,,27,,,,
{8}2/4-6[8:1],3,2-4[8:1],,8-6[8:1],8,2,2h[4:7],,
{8}E8,B8,B7,,C,B1,,B6,B5,C,B4,,Ch[16:1],,E
