&title=FFT
&artist=cybermiso
&first=-0.2
&des=CupLid
&des_5=
&lv_5=14
&inote_5=(180){4},,,E7/D7/Ch[8:7],
{8}B7,B6,,A7,{4}A6,{8}7/1h[8:1],6-4[8:1],
,6/2,{4}1-5[8:1],1/5,E3/D3/Ch[8:7],
{8}B2,B3,,A2,{4}A3,{8}2/8h[8:1],3-5[8:1],
,3/7,{4}8-4[8:1],8/4,E7/D7/Ch[8:7],
{8}B6,B7,,A6,{4}A7,{8}6/4h[8:1],7-1[8:1],
,7/3,{4}4-8[8:1],4/8,7h[8:1]/1h[8:1],
5bpp7<4[8:3]/3bqq1>4[8:3],{16},,,,,,,,5/3h[4:1],6,{8}7h[8:3],
{16},2,{8}1h[8:3],{16},6,{8}5h[8:3],{16},2,{8}3h[8:1],,,6/5,
7/3,,4/3,2/6-4[8:1],1-5[8:1],6,1,
{4}8<6[8:1]*>2[8:1],8s4[8:1],8,3/5,
{8}3/4,2/6,,5/6,7/3-5[8:1],8-4[8:1],3,8,
{4}1>3[8:1]*<7[8:1],1z5[8:1],1,7/3,
5>2[8:1]/8-4[8:1],8/5,1/5,2/6,
4<7[8:1]/1-5[8:1],1/4,8/4,2/6qq3<2qq7[4:5],
{1}6bh[2:3],
{4},,8b,1/5-2[8:1],
{8}5/7,8,1,{32}E8,B7,B6,E6,E2,B2,B3,E4,,,,,{4}8-4b[8:1],
4-6[8:1]/8b-2[8:1],8-4[8:1],8/7p5[8:3],{8}3,2,
{4}1q3[8:3],{8}6,7,{4}8,{32}D8,A7,D7,A6,D3,A3,D4,A4,
{4}1x-5[8:1],5<7[8:1]/1>3[8:1],,4/8-4[8:1],
8/1<6[8:1],{8}1,5,8>4[8:1],4v2[8:1],{4}8,
{8}1bh[8:3],,,3,{4}4/8,7-3[8:1]/2-8[8:1],
7/2,1-5[8:1]/6-4[8:1],6/1,7/8-2[8:1]*-3[8:1],
8b-6[8:1]*-5[8:1],8b-4[8:1]*w4[8:1],8b,7/1,
{8}4/2,1,8,{32}E2,B2,B3,E4,E8,B7,B6,E6,,,,,{4}1-5b[8:1],
5-3[8:1]/1b-7[8:1],1-5[8:1],1/2q4[8:3],{8}6,7,
{4}8p6[8:3],{8}3,2,{4}1,{32}D2,A2,D3,A3,D7,A6,D6,A5,
{4}8x-4[8:1],4>2[8:1]/8<6[8:1],,5/1-5[8:1],
1/8>3[8:1],{8}8,4,1<5[8:1],5v7[8:1],1,4,
2xh[8:3],,,6,{4}8/4,{8}7/4-7[8:1],3,
4/2,1,2/5-2[8:1],6,5/7,8,{4}7>2[8:1],
7/2,{8}8xz4[8:1]/1xs5[8:1],7/2,{4}8b/1b,{8}6/3,7-3-7[4:1],
2,A7f,,1-5-1[4:1],8,A1f,,7V53[8:1],
3-7[8:1],A7f,,8,{4}6/2,{8}3/7,2-6-2[4:1],
6,A2f,,8-4-8[4:1],1,A8f,,2V46[8:1],
6-2[8:1],A2f,,1,{4}3/7,{8}2/6,3-7-3[4:1],
7,A3f,,5-1-5[4:1],4,A5f,,3V17[8:1],
7-3[8:1],A3f,,4,{4}2/6,{8}8-3[8:1],3>6[4:1],
8,4h[8:3],,,5,7-2[8:1]/1-6[8:1],,7b/1b,
,8w4b[8:1],,8b,,,7-4[8:1],3-8[8:1],
7,3<1[4:1],{4}5>1b[8:1],{8},,7/3,6-1[8:1]/2-5[8:1],
7/3,6V41[4:1]/2V85[4:1],,,,,2-5[8:1],6-1[8:1],
2,6,4-7<5[4:1]*-1>3[4:1],5/3,4,,,6-8[8:1],
2-4[8:1],6-4[8:1],2-8[8:1],6,{4}2,5x-1[8:1]/1x>4[8:1],
5/1,4x-8[8:1]/8x<5[8:1],8/4V26[4:1],{8}1,1V73[4:1],
,5,{4}5-8[8:1]*-2[8:1],5,{8}3-8[8:1],7-4[8:1],
3,7>5[4:1],,5,,,6/4,{16}7,7,
{8}5,{16}3,3,{8}5,{32}8,7,6,5,{8}4/8,{32}1,2,3,4,{4}5bp3p1[4:13]`1bp7p5b[4:13],
{1},,,{4},,,{16}5/7h[4:3],
,,4,
,,{8}5,{16},4,,,{4}5,{16}4/2h[4:3],,,5,
,,{8}4,{16},5,,,{4}4,8/1,
{1}Ch[2:3],
{4},,E5f,7h[4:1]/5h[8:1],
{8},6h[8:1]/4h[4:1],,,5h[4:1]/3h[8:1],,,2h[8:1]/4h[4:1],
,,{4}1V75[8:1]*<5[8:1],1,2h[4:1]/4h[8:1],
{8}4,3h[8:1]/5h[4:1],,3,{4}4h[4:1]/6h[8:1],{8}6,7h[8:1]/5h[4:1],
,7,{4}8V24[8:1]*>4[8:1],8,{8}6/5,6/5,
6/7,7/6,8/7,7/8,8/1,8/1,{16}2,3,4,5,
8,1,2,3,6,7,8,1,4,5,6,7,{4}8/2b-4-1-5-8-6b[2:1],
,,,7v4[8:1]/2v5[8:1],
7/2,8b<5[8:1]/1b>4[8:1],D1f/A8/A1,{8}7v4[8:1],4<2[4:1],
7,2p4[8:1],{4}3h[4:1],{8},2-5[8:1],{16},,5,6,
{8}7-4[8:1],4,{16}3q8[8:1],2,{8}1,{4}Cf,{8}6/2v5[8:1],5>7[4:1],
2,7q5[8:1],,6h[4:1],,2-8[8:1],7-3[8:1],2-6[8:1],
7-1[8:1],2,7,4,{4}5b-8[8:1]/3b-8[8:1],5/3,
{32}4h[8:1]/D8f/A7,D7,A6,D6,{8}A5,{4}7/2,{32}5h[8:1]/D2f/A2,D3,A3,D4,{8}A4,{16}7,1,7,1,
5,3,5,3,8,2,6,4,7,1,5,3,{32}A7f/E8/B7,D7,A6,D6,A5,D5,A4,D4,
A3,D3,A2,D2,A1,D1,A8,D8,A7,D7,A6,D6,A5,D5,A4,D4,{4}A3/Cf,{8}7-1[8:1],2-6[8:1],
7,2,8x-4[8:1],7x/1x,{4}8x,7-3[8:1]/1-5[8:1],
7b/1b,{8}6-3[8:1],2-7[8:1],6,2,5h[4:1],E3/B3/A3,
1h[4:1],B7/A7/E7,{16}2,4,3,5,4,6,5,7,{8}1-5[8:1],2h[16:1]/8h[16:1],
{4}A1f,{8}8-4[8:1],7h[16:1]/1h[16:1],{4}A8f,{8}2/1,{16}3,4,
{8}1,{16}6,5,{8}8,4/3,{4}6/2-6[8:1],2/6-3[8:1]*-2b[8:1],
{16}A6f,,,1x/7x,,,6/2,6/2,,,{8}8x/2x,{16},,7/3>8[8:1],7/3,
,,{8}3x/6>3[8:1],,6x/1<6[8:1],,1x/2,3-8[8:1],8>6[4:1],
3,7h[8:3],,,8,6-1[8:1]/2-5[8:1],,6b-3[8:1]/2b-7[8:1],
,6bV41[4:1]/2bV85[4:1],,E1f/E5f,,,{4}Cfh[4:1],
{8},,6b/2,{16}3,4,{8}1b,{16}6,5,{8}8b-3[8:1],3>5[4:1],
8,4h[4:1],,,{4}6/2,{8}3bx/4bx,{16}2,2,
{8}4b,{16}7,7,{8}5b-1[8:1],{16}3,3,{4}5b,{8}8b>3b[16:3],2b>5[16:3],
4b<7b[16:3],6b<8[8:1],,Cf,{32},,,,,,,,A7/A2,E7/E3,E6/E4,A5/A4/D5f,,,,,{8}8/1,
6/3,7/2,{16}3,4,{8}1b,{16}6,5,{8}8b,{16}3,4,
2b,5,3,4,2b,1,3,8,2b,1,3,8,{4}Cf,
{8}E8/B8/B1/E2,E5f,,7-2[8:1]/3-6[8:1],,7-4[8:1]/3-8[8:1],,7V16-2[8:3]/3V52[4:1],
,7/3,,Cf,,,3/6,7/2-6-2[4:1],
6/3,A2f,,8-4-8[4:1],7/1,A8f,,2V46[8:1],
1/6-2[8:1],A2f,,1,{4}3/7,{8}3/6,2/7-3-7[4:1],
6/3,A7f,,1-5-1[4:1],2/8,A1f,,7V53[8:1],
8/3-7[8:1],A7f,,8,{4}6/2,{8}6/2,7/3-8b[8:1],
6/2,D7f/E7/B6/B5/E5/D5,,2/6-1b[8:1],3/7,D3f/E3/B4/B3/E5/D5,,7/3-8b[8:1],
6/2,D7f/E7/B5/B6/E5/D5,,6/2,{4}6/2,{24}8,7,6,2,3,4,
7,6,5,1,2,3,7-3[8:1],6,5,2-6[8:1],3,4,{48}7b,Cf,,,,,2b,Cf,
E
