&title=FULi AUTO BUSTER
&artist=MYUKKE.
&first=0.02
&des=SeiKA
&lv_5=13+
&inote_1=
&inote_5=(145)
{1},
{8},,,,,,,,
{8}35,4,56,7h[4:1],8-5[8:1],1,82,3,
{8}24,1,78,6h[4:1],5<8[8:1],4,35,2,
{8}1-5[8:1],,16,7,8V64[4:1],4,38,2,
{32}1xh[8:1],,,,B2,B3,B4,,1xh[8:1],,,,B8,B7,B6,,1xh[8:1],,,,A3,A4,A5,,1,,,,2,,,,
{16}3-6[8:1],,3,,7-2[8:1],,7,,3,,3,,8h[8:1],,2,7,
{16}1-4[8:1],,1,,5-8[8:1],,5,,1,,1,,7h[8:1],,8,6,
{32}1x,2x,3x,4x,5x,6x,7x,8x,1xw5[8:1],2x,3x,4x,5x-1[8:1]b,6x,7x,8x,A1f,,,,,,,,,,,,2b/8bp4[8:1],,,,
{8},48,3,2b-6-2[4:1],,2b/8b,Cf,,
{8}7-4[8:1],8,1x/7x,2,3h[4:1],B1,6h[4:1],B8,
{8}2-5[8:1],1,8x/2x,7,6h[4:1],B8,3h[4:1],B1,
{8}5<8[8:1],4,3x/5x,2,3h[4:1],B4/E5,7h[4:1],B3/E3,
{8}4>1[8:1],5,6x/4x,7,6h[4:1],B5/E5,2h[8:1],8b,
{8}3xh[4:1],5,7xh[4:1],5,2xh[4:1],5,8xh[8:1],{32}E2,E3,E4,E5,
{8}6xh[4:1],4,2xh[4:1],4,7xh[4:1],4,1xh[8:1],{32}D8,D7,D6,D5,
{16}2,2,4,4,5,5,7,7,{32}A8,D1,A1,D2,A2,D3,A3,D4,A4,D5,A5,D6,A6,D7,A7,D8,
{8}A8/1bx-4-2-5[8:3]*-6-8-5[8:3],,,,,,Cf,,
{8}2-5[8:1]/7pp4[2:1],,2,,4,4>6[8:3]b,,3bq5[8:3],,,,,4-8[8:1],,1x,,
{8}7-4[8:1]/2qq5[2:1],,7,,5,5<3[8:3]b,,6bp4[8:3],,,,,5>2[8:1],,8x,,
{8}1-5[8:1]/6pp3[2:1],,1,,3,3>5[8:3]b,,4bq5[8:3],,,,,6-2[8:1],,4x,,
{8}8-4[8:1]/3qq6[2:1],,8,,6,6<4[8:3]b,,5bp4[8:3],,,,,3>8[8:1],,5x,,
{8}6-4[8:1]/7-3[8:1],,6-8-4-2[8:3],,2,2<5[8:3]b,,1bq4[8:3],,,,,6-1[8:1],,3x,,
{8}3-5[8:1]/2-6[8:1],,3-1-5-7[8:3],,7,7>4[8:3]b,,8bp5[8:3],,,,,3-6[8:1],,7x,,
{8}5-3[8:1]/7-5[8:1],,5-1-7-3[8:3],,3,3>5[8:3]b,,2bq5[8:3],,,,,8-5[8:1],,2x,,
{8}4-6[8:1]/2-4[8:1],,4-8-2-6[8:3],,6,6<4[8:3]b,,7bp4[8:3],,,,,1h[4:1],,{32}3x-7[8:1]b,4x,5x,6x,7x,,,,
{8}3b/6bh[4:11],,,,,,,8pp4[8:5],,,,,,,,,3pp8[2:1],,,,,,,{32}E7,B6,B5,B4,{8}B3/2,2,2,2,8xq5[8:1]/2xpp4[8:1],,2bx/8bx,,
{8}7V51[2:1],,2,,1V37[2:1],,4,4,,1,1-5[8:1],,1/8s4[4:1],,3,3,
{8}2V48[2:1],,7,,8V62[2:1],,5,5,,8,8-4[8:1],,8/1-5[8:1]b,,6b,,
{16}7,6,7,6,7h[8:1],,1,,28,,3,,46,,6,,2,3,2,3,2h[8:1],,8,,71,,6,,53,,3,,
{16}7,5,7,5,7h[8:1],,8,,16,,2,,37,,5,,2/4,,1,,7h[8:1]/8,,{32}E6,E5,E4,E3,7-4[8:1],,,,8,,,,1h[8:1]/7,,,,,,,,
{8}23,2/3-6[8:1],2qq5[8:3]b/3,A3,2bx,,E1/B1/B8,,76,7/6-3[8:1],7pp4[8:3]b/6,A6,7bx,,E1/B1/B8,,
{32}2,,2,,3,,3,,4,,4,,5,,5,,A1,D2,A2,D3,A3,D4,A4,D5,A5,D6,A6,,{8}7b-3[8:1],,7,4b-1[8:1]b,,5b-8[8:1]b/4b,,5b/4b,,
{8}7<5[8:1]/8,,4-8[8:1]/7,3,2-4[8:1]/4,1x-5[8:1],2,1,3-5[8:1],7-5[8:1],3,7,{32}1h[8:1],,,,3x,4,5,,2,,,,7,,,,
{8}1-5[8:1]/8,,1>4[8:1]/5,6,1/7-4[8:1],8x-3[8:1],7,8,6>4[8:1],7,1/6<8[8:1],8,1-5-7[4:1]b/6,2,13,,
{8}2>4[8:1],,5-1[8:1]/2,6,7-5[8:1]/5,8x-4[8:1],7,8,6-4[8:1],2-4[8:1],6,2,{32}8h[8:1],,,,6x,5,4,,7,,,,2,,,,
{8}8-4[8:1]/1,,8<5[8:1]/4,3,8/2-5[8:1],1x-6[8:1],2,1,3<5[8:1],2,8/3>1[8:1],1,8-4[8:1]b/3,7,{32}86,Cf,,,,,,,
{8}7-5[8:1],5-1[8:1],7,2,3h[4:1],2-5[8:1],2,2-7[8:1],,2/4,4,1V35[4:1]/5,,6,7V51[4:1],,1-5[8:1],,2>4[8:1],2,6V84[4:1],6,1,1h[4:1],,{32}7x,6,5,,2h[8:1],,,,6x,5,4,,2h[8:1],,,,5x,4,3,,2h[8:1],,,,8,,1,,
{4}7x-4[8:1]*-5[8:1],7-2[8:1]*-1[8:1],7x,{32}7x,,,,D7/3,D6,D5,,{4}2x-5[8:1]*-4[8:1],2-7[8:1]*-8[8:1],2x,{32}2x,,,,D3/7,D4,D5,,
{32}8x,7x,6x,5x,4x,3x,2x,1x,8xw4[8:1],7x,6x,5x,4x-8[8:1]b,3x,2x,1x,A8f,,,,,,,,,,,,7b/1bq5[8:1],,,,
{8},51,6,7b-3-7[4:1],,7b/1b,Cf,,
{8}2-5[8:1],1,2/7-3[8:1],8,7/4>1[8:1],5,4/6-2[8:1],7,6/8-4[8:1],1,7<5[8:1]/8,6,7/3-8[8:1],2,34,,
{8}7-4[8:1],8,7/2-6[8:1],1,2/5<8[8:1],4,5/3-7[8:1],2,3/1-5[8:1],8,2>4[8:1]/1,3,2/6-1[8:1],7,65,,
{16}2/8>3[8:1],,1,,6/8<5[8:1],,7,,8-3[8:1]/2,,1,,{32}84,,,,D5,D6,D7,D8,
{16}1<6[8:1],,8,,3/1>4[8:1],,2,,1-6[8:1]/7,,8,,{32}15,,,,D5,D4,D3,D2,
{16}7,8,7,8,6,1,6,1,{32}E5,E4,E3,E2,E1,E8,E7,E6,E5,E4,E3,E2,E1,E8,E7,E6,
{8}4h,4h,4x-2[8:1]*-6[8:1],,4xw8[8:1]b,,{32}B4,C,B8,
