&title=V
&artist=石川贵之
&first=0.36
&des=请设置做谱人从众𠈌
&lv_5=13+
&inote_5=(150)
{16}1,5,1,5,2,6,2,6,3,7,3,7,{32}4,5,6,7,8,1,2,3,
{4}4pp8[4:6]*qq8[4:6]/5b,,,,,,,,
{4}6h[8:1],6h[8:1],6h[8:1],6h[8:1],4h[8:1],4h[8:1],4h[8:1],4h[8:1],
{4}3h[8:1]/5,3h[8:1]/5,3h[8:1]/5,3h[8:1]/5,5h[8:1]/4,5h[8:1]/3,5h[8:1]/2,{8}5h[8:1]/1,2,
{8}3h[8:1],5,3h[8:1],6,3h[8:1],7,3h[8:1],8,2h[8:1],8,3h[8:1],7,4-1[8:1],6,4,,
{16}6b,5,6,,6,7,6,,6,4,6,,6,8,6,,7,5,7,,7,1,7,,7,6,7,,7,8,7,,
{16}2b,1,2,,2,3,2,,2,8,2,,2,4,2,,3,1,3,,3,5,3,,3,2,3,,3,4,3,,
{16}6b,5,6,,6,3,6,,6,1,6,,6,7,6,,2b,3,2,,2,5,2,,2,7,2,,2,1,2,,
{16}6b,4,6,,7,1,7,,3b,5,3,,2,8,2,,
{16}6b,3,6,5,6,7,6,1,6,3,4,3,2-7-3-6-4-8[4:4],3,8,3,
{1}2,{16}2,3,4,5,6,7,8,1,6h[8:1]/2,3,4,5,6,7,8,1,
{16}2h[8:1],,E1,E8,E7,,E3,E4,E5,,B1,C,B5,,,,
{8}6h[4:1],4,2h[4:1],4,5h[4:1],3,1h[4:1],3,8h[4:1],6,4h[4:1],6,7h[4:1],5,3-8-4-7-5-1[4:4],5,
{1}3,
{16}7,6,5,4,3,2,1,8,7/3h[8:1],6,5,4,3,2,1,8,
{16}7h[8:1],,E1,E2,E3,,E6/B5/B6,,B3,B5,B1,B7,B4,B6,B2,B8,
{8}3hx[4:1],5,7h[4:1],5,4h[4:1],6,8h[4:1],6,1h[4:1],3,5h[4:1],3,2h[4:1],4,6-1-5-2-4-8[4:4],4,
{1}6b,
{16}2,3,4,5,6/1,8,7,6,5/8,1,2,3,4/7,6,5,4,
{16}3/2h[8:6],,6,5,4,,7,6,5,,8,7,6,,,,
{4}5-8[8:1],5-2[8:1],4-7[8:1],4-1[8:1],6-8[8:1],5-1[8:1],4-2[8:1],,
{16}8,4,8,4,7,3,7,3,6,2,6,2,{32}5,4,3,2,1,8,7,6,
{8}5h[4:1],3,4h[4:1],8,7-4-1[4:1],4-1[8:1],7,,{8}3h[4:1],7,5h[4:1],1,2-5-8[4:1],5-8[8:1],2,,
{8}6h[4:1],1,2h[4:1],3,5-2-7[4:1],2-7[8:1],5,,3h[4:1],8,7h[4:1],6,4-7-2[4:1],7-2[8:1],4,,
{16}6x,3x,6,3,7,2,7,2,8,1,8,1,{32}8,7,6,5,1,2,3,4,
{8}8h[8:1],{16}1,1,1,1,1,1,1,,{32}2/8,,3/7,,4/6,,,,3b/7b,,,,
{8}5b/6b,7/1,4/5,1/3,5/6,7/1,4/5,1/3,{16}7,5,3,5,7,5,3,5,7,5,,3,5,,1/6,,
{8}4b/3b,2/8,5/4,8/6,4/3,2/8,5/4,8/6,{16}2,4,6,4,2,4,6,4,2,4,,6,4,,8/3,,
{8}8b/7b,6/4,1/8,4/2,8/7,6/4,1/8,4/2,{16}7,1,3,1,7,1,3,1,7,1,,3,5,,2/6,,
{8}1b/2b,3/5,8/1,5/7,1/2,3/5,8/1,5/7,
{16}4,8,3,7,2,6,1,5,8,4,1,5,2,6,3,7,2,6,3,7,4,8,5,1,4,8,3,7,2,6,1,5,8h[8:1],,7,1,6,2,5,3,6,7,8,1,4,3,2,1,8,7,6,5,8,7,6,5,8,7,6,5,4,3,2,1,
{16}8h[8:1],,6,5,4,3,2,1,8h[8:1],,6,5,4,3,2,1,8h[8:1],,3,4,5,6,7,8,2,3,4,5,2,3,4,5,7,6,5,4,7,6,5,4,2,1,8,7,2,3,4,5,6/2,3,4,5,6,7,8,1,2/7,6,5,4,3,2,1,8,
{16}7/2,,1,7,2,6,3,5,4,3,2,1,8/7,6,5,4,1,2,3,4,5/6,7,8,1,3,2,1,8,7/6,5,4,3,
{8}1h[4:1],4,2h[4:1],3,4h[4:1],8,3h[4:1],7,
{16}6,5,6,5,7,4,7,4,8,3,8,3,1,2,1,2,4,3,4,3,5,2,5,2,6,1,6,1,7,8,7,8,6,1,6,2,6,3,6,3,6,5,6,7,6,8,6,1,7,1,8,1,2,1,3,1,4,1,5,1,6,1,7,1,8h[8:1],,1,1,1,1,1,1,1b,,3b/7b,,4b/6b,,3b/7b,,
{8}5b/6b,2/3,5/6,1/8,5/6,2/3,5/6,1/8,{16}5,3,6,1,5,2,6,8,5,,1/2,,4/5,,8/7,,
{8}4b/3b,7/6,4/3,8/1,4/3,7/6,4/3,8/1,{16}4,6,3,8,4,7,3,1,4,,8/7,,5/4,,1/2,,
{8}6b/7b,4/5,2/3,4/5,6/7,4/5,2/3,4/5,{16}7,4,1,5,8,4,2,5,7,,4/3,,5/6,,2/7,,
{16}3h[1:0],5,4h[1:0],1,3h[1:0],5,4h[1:0],1,2h[1:0],8,6h[1:0],7,2h[1:0],8,6h[1:0],7,
{16}2h[8:1],,8,1,8,7,8,1,8,,6/5,,4/3,,2/1,,7h[8:1],,1,8,1,2,1,8,1,,3/4,,5/6,,7/8,,
{16}1h[8:1],,8,2,8,6,8,2,8,,7/2,,6/3,,4/5,,
{8}3h[4:1],7,4h[4:1],7,2h[4:1],7,1h[4:1],7,5h[4:1],2,6h[4:1],2,8h[4:1],2,7h[4:1],2,
{16}2,6,2,6,3,7,3,7,4,8,4,8,{32}5,6,7,8,1,2,3,4,
{4}5pp1[4:8]*qq1[4:8]/6b,,,,,,,,
