&title=Mermaid girl
&artist=中原龍太郎; 森永真由美
&first=0.1
&des=Cart
&lv_5=13+
&inote_5=(140)
{8},1-5[1:1],,,,,,,,,,,,,,
{16}3,,3,,6,,,6,5,,4,,2-5[8:1],,5-8[8:1],,8>3[8:1],,,,
{8}6-3[8:1],6,2-5[8:1],2,7-4[8:1],7,1,,
{16}2/8,,7,1/6,,2,3/8,,7<4[8:1],,4-1[8:1],,1-5[8:1],,,,
{8}2-6[8:1],2,8-5[8:1],8,1h[4:1],,
{16}7,,7h[8:1],,1-4[8:1],,,8,1,,6,,7-4[8:1],,4-1[8:1],,1-6[8:1],,,,
{8}3-6[8:1],3,8-4[8:1],8,2>5[8:1],2,7,,
{16}3/5,,4/7,6,,2/5,3,,5-1[8:1],,3/7,,5,,,,
{16}2/8,,7,6/7,,3,3/5,,2b/6b,,4b/8b,,3b/7b,,
{8},4/7-2[8:1],6,7/4-1[8:1],3,6-3[8:1]/4,5,8/6,,
{8}5/2-7[8:1],3,2/5-8[8:1],6,3-6[8:1]/5,4,1/3,,
{16}7,,7,6,,6,5,,3-8[8:1],,8-5[8:1],,7h[8:1],,,,
{8}7-2[8:1],7-3[8:1],7-4[8:1],7,7,,
{8}2,2,8/5-2[8:1],6,5/8-3[8:1],1,6-1[8:1]/8,7,4/6,,
{8}1/4-7[8:1],3,4/1-6[8:1],8,3-8[8:1]/1,2,5/3,,
{16}7,,7,6,,6,5,,4,,3/4,,2,,,,2,,2,3,,3,4,,5/6,,6/7,,7b/8b,,,,
{8}1>4[8:1],,8<5[8:1],,,,
{8}3-6[8:1],6-1[8:1],1-4[8:1],,8-5[8:1],,2-5[8:1],,7<4[8:1],7,2-5[8:1],2,8,7,,,
{8}8-4[8:1],4-8[8:1],8,,2-6[8:1],,3-7[8:1],,4-8[8:1],4,7<4[8:1],,1>4[8:1],,,,
{8}8-5[8:1],8,8-3[8:1],,8-5[8:1],,8,,2,,2-5[8:1]/6-1[8:1],,2/6,,3/7,,
{8}5-1[8:1],5,5/7-3[8:1],,2>5[8:1]/7,,2/8,,6,7,1>4[8:1],4-7[8:1],7-2[8:1],,,,,,,
{8}1/2,3,4/5,6,7/8,1h[4:1],,,7-3[8:1],3>8[8:1],8-5[8:1],,,,
{8}1,3/8-3[8:1],,8/2-5[8:1],,4-7[8:1]/2,,4/6-1[8:1],,6/8-4[2:1],,,,,,,,,
{8}1-4[8:1],4-1[8:1],1-6[8:1],6-1[8:1],7,7,5,5-8[8:1],,2-5[8:1]/5,,2/7,,,
{8}6,5-2[8:1],,5-8[8:1]/7,,5-2[8:1]/3,,5<8[2:1]/7,,5/3,,,,,,
{16}1/8,,1/8,,7-4[8:1]/2,,,3,7,,1,,1>4[8:1],,4<7[8:1],,7b-2[8:1],,,,
{8}8-4[8:1],8,7-3[8:1],7,6-2[8:1],6,5,,
{16}3/4,,3/4,2/5,,2/5,1/6,,7/8,,1/6,,7b/8b,,,,
{8}2-5[8:1],5-8[8:1],8>3[8:1],7-4[8:1],7,,
{16}2,,2h[8:1],,8-5[8:1],,,1,8,,3,,2-5[8:1],,5-8[8:1],,8-3[8:1],,,,
{8}6-3[8:1],6,1-5[8:1],1,7<4[8:1],7,2,,
{16}1/2,,1/2,3/8,,3/8,4/7,,5-2[8:1]/6-1[8:1],,4/7,,5b/6b,,,,
{16}7/8,,7/8,1/6,,1/6,2/5,,3-7[8:1]/4-8[8:1],,2/5,,3b/4b,,,,
{8}5/2-7[8:1],3,2/5-8[8:1],6,3-6[8:1]/5,4,1/3,,
{8}4,6,7,3,6,5,1,,
{16}3,,3,2,,2,1,,7-4[8:1],,4-1[8:1],,3h[8:1],,,,
{8}3,4,5,6,7,
{8}2b,2b,,8/5-2[8:1],6,5/8-3[8:1],1,6-1[8:1]/8,7,4/6,,
{8}1/4-7[8:1],3,4/1-6[8:1],8,3-8[8:1]/1,2,5/3,,{16}6,,6,7,,7,8,,1,,2/1,,3,,,,3,,3,2,,2,1,,6/7,,4/5,,2b/3b,,,,,,
{8}8<5[8:1],8,,4>1[8:1],6,4,,,7-3[8:1],3-8[8:1],8<5[8:1],,,,
{8}3-6[8:1],3,,8-4[8:1],,1-5[8:1],,2-6[8:1],,3-7[2:1],,,,,,,,,
{8}2-5[8:1],5-2[8:1],2-7[8:1],7-2[8:1],8,8,6,6-1[8:1],,3-6[8:1]/6,,3/8,,,
{8}2,1-6[8:1],,1-4[8:1]/3,,1-6[8:1]/7,,1>4[2:1]/3,,1/7,,,,,,,,8,,8,,8,,{16}8/1,,8/1,,2-5[8:1]/7,,,6,2,,8,,8<5[8:1],,5>2[8:1],,2b-7[8:1],,,,
{8}1-5[8:1],1,2-6[8:1],2,3-7[8:1],3,4,,
{16}6,,6,7/6,,1/8,1,,2/3,,4/3,,4b/5b,,,,{8}2-5[8:1],5-8[8:1],8>3[8:1],7-4[8:1],7,,{16}2,,2h[8:1],,8-5[8:1],,,1,8,,3,,2-5[8:1],,5-8[8:1],,8-3[8:1],,,,
{8}6-3[8:1],6,1-5[8:1],1,7<4[8:1],7,2,,
{16}1/2,,1/2,3/8,,3/8,4/7,,5-2[8:1]/6-1[8:1],,4/7,,5b/6b,,,,
{16}7/8,,7/8,1/6,,1/6,2/5,,3-7[8:1]/4-8[8:1],,2/5,,3b/4b,,,,6b/2b,E
