&title=ロウワー
&artist=Enana
&first=0
&des=Enana
&lv_6=Enana
&inote_6=(132){1},
{24},,,,,,,,,,,,,,,,,,,,,,,,
{24}3-7[8:1],,,,,,6-4[8:1],,,,,,2V86[16:3],,,,,,,,,,,,
{24}5V73[4:1],,,,,,3-1[8:1],,,,,,4,,,,,,,,,,,,
{24}2-6[8:1],,,,,,8-5[8:1],,,,,,8-3[8:1],,,,,,,,,,,,
{24}2-6[8:1],,,,,,2<3[16:5],,,,,,2,,,,,,,,,,,,
{24}5q4[4:1],,,,,,8,,,,,,1,,,1,,,2,,,2,,,
{24}2q3[4:1],,,,,,1,,,,,,8,,,7,,,6,,,5,,,
{24}3qq4[2:1],,,,,,1,,,,,,6,,,6,,,7^2[8:1],,,7,,,
{24}2^7[8:1],,,,,,,,,,,,4z8[4:1],,,6,,,6,,,6,,,
{24}7-3[8:1],,,7/3>4[16:5],,,7,,,,,,4p5[16:3],,,3,,,1,,,1,,,
{24}2,,2,1,,,3,,3,4,,,1,,1,8,,,4,,4,5,,,
{24}2-6[8:1],,,2/6<5[16:5],,,2,,,,,,5q4[16:3],,,6,,,8,,,8,,,
{24}7,,7,8,,,6,,6,5,,,8,,8,1,,,5,,5,4,,,
{24}7-3[8:1]/1,,,7/3>4[16:5],,,75,,,,,,4p5[16:3],,,3,,,1,,,1,,,
{24}2,,2,1,,1,3,,3,4,,4,1,,1,8,,8,4,,4,5,,,
{24}2-6[8:1]/8,,,2/6<5[16:5],,,24,,,,,,5q4[16:3],,,6,,,8,,,8,,,
{24}7,,7,8,,8,6b,,6,5,,5,8b,,8,1,,1,5b,,5,4,,4,
{24}1-6[8:1],,,,,,5-2[8:1],,,,,,1qq6[4:1],,,,,,,,,,,,
{24}4-7[8:1],,,,,,8-3[8:1],,,,,,4pp7[4:1],,,,,,,,,,,,
{24}1v6[8:1],,,,,,5^2[8:1],,,,,,1pp6[4:1],,,,,,,,,,,,
{24}4h[8:1],,,2,,,5h[8:1],,,7,,,4h[8:1],,,1,,,5h[8:1],,,8,,,
{24}3^6[8:1],,,3,,,2v7[8:1],,,2,,,3pp6[4:1],,,3,,,,,,,,,
{24}7^2[8:1],,,7,,,6v3[8:1],,,6,,,7pp2[4:1],,,7,,,,,,,,,
{24}4pp6[8:1],,,4,,,8pp2[8:1],,,8,,,1,,,1,,,1,,,
{24}1b/8b,,,
{24}1b/2b,,,
{24}1b/7b,,,
{24}1b/3b,,,
{24}1b/6b,,,
{24}1b/4b,,,
{24}1b/5b,,,
{24}1b/3b,,,
{24}1b-4[8:1]/7b,,,
{24}4-8[8:1],,,8-5[8:1],,,5,,,,,,1,,1,2,,12,,,,6-2[8:1],,,
{24}2^7[8:1],,,7<3[6:1],,,3,,,,,,8,,8,7,,78,,,,1-6[8:1],,,
{24}6v4[8:1],,,4-1[8:1],,,8,,,,,,5,,5,4,,45,,,,18,,,
{24}2,,2,1,,1,3,,3,4,,4,1,,1,8,,8,4,,4,5^8[8:1],,5,
{24}8^3[8:1],,,3-7[8:1],,,4,,,,,,1,,1,8,,18,,,,1-3[8:1],,1,
{24}3-7[8:1],,,7-5[12:1],,,5,,,,,,8,,8,1,,81,,,,1v4[8:1],,1,
{24}4^7[8:1],,,7^1[12:1],,,6,,,,,,5,,5,4,,45,,,,1,,1,
{24},,,,,,2h[4:3],,,3,,,4,,,5,,,6,,,7,,,
{24}8^5[8:1],,,5,,,8-4[8:1],,,4,,,8>4[8:1],,,3,,,8,,,5,,,
{24}8-6[12:1],,,6,,,8-4[8:1],,,4-2[12:1],,,8,,,,,,1,,3,4,,,
{24}18,,,7,,,6,5,,7,,18,,,,2,,,3V15[4:1]*v5[4:1],4,,2,,3,
{24},,,,,,,,,7h[8:5],,,5,,,4,,,3,,,2,,,
{24}1^4[8:1],,,4,,4,1-5[8:1],,,5,,5,1<5[8:1],,,6,,6,1,,,4,,,
{24}1-3[12:1],,,3,,3,1-5[8:1],,,5-7[12:1],,,1,,,,,,8,,6,5,,8,
{24}1,,3,4,,1,8,,6,5,,8,1,,3,4,,1,7,2,8,3,1,4,
{24}2qq6[4:1],,,,,,,,,,,,5w1[8:1],,,,,,,,,,,,
{24}4,,4,7,,7,3,,3^6[8:1]*^6[8:1],6,,6-2[6:1]*<2[6:1],2,,,,,,,,,,,,
{24}6,,6,2,,2,7-5[12:1]*-5[12:1],,5-1[8:1]*-1[8:1],3-1[12:1]*-1[12:1],,1-5[8:1],7,,,,,,,,,,,,
{24}3-8[12:1],,3,7-4[12:1],,7,3,,,7,,,2-5[12:1],,2,6-1[12:1],,6,2,,,6,,,
{24}3v5[8:1]*V15[8:1],,5,2,,4,3b,,,,,,4w8[8:1],,,,,,,,,,,,
{24}7,,7,3,,3,6,,6<2[8:1]*<2[8:1],2,,2-6[8:1]*^5[8:1],5,,,,,,,,,,,,
{24}3,,3,7,,7,2-4[12:1]*-4[12:1],,4-8[8:1]*-8[8:1],6-8[12:1]*-8[12:1],,8-4[8:1],2,,,,,,,,,6h[4:1],,,
{24},,,2,,2,1,,3,4,,,2q3[4:1]*q3[4:1],,,1,,,5,,,8h[4:1],,,
{24},,,4,,7,8,,6,5,,,78,,,12,,,34,,,56,,,
{24}7/2-6[12:1],,,4/2<3[4:1],,,62,,,,,,5bV71[8:1],,,1v4[12:1],,,52,,,,,,
{24}3,,2,1,,4,5,,1,8,,5,6,,8,7,,5,6,,1,8,,,
{24}2/7-3[12:1],,,5/7>6[4:1],,,37,,,,,,4bV28[8:1],,,8v5[12:1],,,47,,,,,,
{24}6,,7,8,,5,4,,8,1,,4,3,,1,2,,4,3,,8,1,,,
{24}6/3-7[12:1],,,1/3<2[4:1],,,73,,,,,,8bV64[8:1],,,4v1[12:1],,,83,,,,,,
{24}2,,3,4,,1,8,,4,5,,8,7,,5,6,,8,7,,4,5,,,
{24}3/6-2[12:1],,,8/6>7[4:1],,,26,,,,,,1bpp2[8:1],,,5-8[12:1],,,16,,,5,,,
{24}1,,1,8,,1,3b,,8,1,,8,6b,,1,8,,1,3b,,8,1,,6,
{24}4b/5b,,,,,,,,,,,,,,,,,,,,,,,,
