&title=Ave mujica
&artist=Ave mujica
&first=0
&des=DJL2374
&lv_5=14
&des=DJL2374
&des_5=DJL2374
&inote_5=
(111){4},{8}5h[8:1],3,3/8,3/7V53[0.4054##0.4054],{16},7,3,2,
{8}1,6,4h[8:1],6,6/1,2v3-6[8:3]/6v7-2[8:3],,{16}6/2,B6/B2,
B7/B3,A7/A3,E8/E4,E2/E6,{8}A6/A2,4/6,4/8,4/7V53[0.4054##0.4054],{16},7,3,2,
{8}1,6,6/2h[8:1],{24}5,6,7,{8}1/8,7/2,5-8[0.2703##0.2703],{16}5,2,
{8}2,8/2,7b/1b,8,{16}3,6,{8}2h[4:1],8,8,
7/3,5/1,{16}6,3,{8}6h[4:1],1,{16}3,5,{8}4,5/1,
2/7,8/4,7/3h[4:1],6,{16}8,4,{8}7h[4:1],1,2,
8/3,7/1,{16}2,6,{8}3h[4:1],8,{16}7,2,{8}1/6,7,
2/6,3,3/7,5/1,8/2,7/1,3,7/3,
5/1,{16}4,3,{8}2/7,1/6,{16}5/1-3-5[0.2703##0.2703],6,7,8,{8}1,2/6,
3/7,8/4,(109)7/3,6/1,(107)3/8,{16}7/2,6,(104){8}8/1,{16}7/3,1,
(100){8}2/8,{16}3/6,8,(86.5){8}7/2,5/1,(73)5,{16}5/3,4,(62){8}3/6,(58.5)7/2,
(54.5)8/1,(52)3h[#0.5769234]/6h[#0.5769234],(48.5){4},(111){32}5,4,5,4,6,3,6,2,7,3,6,4,{16}5,8b/3h[16:9],
,7,{8}6,{16}8,8,{8}6,{16}7,4,2/6,7,8/3,2,5,2/7h[8:1],
,4,8/2,6,3,8,4,8/2h[8:1],,{32}7,3x,6x,4x,5x,{64}2x,3x,4x,5x,6x,7x,{16}8,4,2b/6h[8:1],
,3,5h[16:1],3,6h[16:1],2,7h[16:1],1,{32}1,2,8,7,2,3,7,6,3,4,6,5,{16}4,3/4,
,3,{8}7/2,{16}6h[4:1],4,{8}2,{48}4,3x,2x,1x,8x,7x,6x/4,3x,2x,1x,8x,7x,{32}6x/3x,5,2,5,{16}2,2b/5b,
,6,6/3,3,4/7,7,8/2,2,3/6,6,7/2,2,3/6,7,,5/1,
,2/6,{8}3/7h[8:1],{16}2,6,{8}2/8h[8:1],{16}3,7,6/3,7,,3,5,4/6,
,7,4,1h[16:7],2,2,3,3-7[8:1],4,5,6,3/7,,5,5,4b/5b,
,1/8,7,6/3,,7/2,6,5/3,,5,6/3,{32}4,5,{16}4,6,2,7,
{2}3b/8b,2/4,
5/7,{16}5/4,{8},,,{32}7,6x,
{2}5/4,{64}3/6,{32},,,,,,,,,,,,,,,{64}5,
{2}4,{16}5/3,{8},,,{32}2,3x,
{2}4/5,{4}8/1,{64}4,{32},,,,,,,{64}8,
1,{32},,,,,,,,,,,,,,,{64}5,{4}4,{8}8h[4:1],{16}3,2,
{8}1,{16}3/6,7h[8:1],{8}4,6/3,4/8,{16}7/4,3h[8:1],{8}6,4/8,
7/1,{16}6,2,8,3,{8}7,{16}3/6h[8:3],3,{8}4,{16}3,3,{8}2,
8/4,{16}7/3,5,6x/3,7,{8}8/1,2/7,{16}6/1,3,2x/6,1,2/5,3,
{4}4/5,{64}4/3,{16},{64}4,{32}5,,{64}5,6,{16},{32}7b/6b,{8},{32}2,7,2,{16}7,3,7,4,
7/2,3,8,1,{8}2/8,7/3,6/2,7/2,{16}1/8,7,2/6,5,
3/7,2,{8}8/1h[4:1],7,6,{16}2/7,6,1,7,{8}1,8/3,
7/1,7/2,{16}1/8,2,3/7,4,6/2,7,{8}1/8h[4:1],2,3,
{16}6/3,7,1,8,1,6,{8}3/7h[4:1],{16}2,2,{8}2,3/6,2/8,
8/1,6/3h[4:1],{16}7,7,{8}7,{16}8/2,6,1,6,{8}5/2,3/6,
{16}8/2,2,{8}2/6,7/3b,7/2h[8:1],{16}6,2/8<4-6-8[0.2703##0.8108],,8/2h[8:1],{8},2,
{16}2,1,{8},6b/2,2/7h[8:1],{16}1,7/1>5-3-1[0.2703##0.8108],,1/7h[8:1],{8},7,
{16}7,7,{32}8,7x,6x,5x,{8}4/2h[8:1],{16}4,3/5,6/4,7/5,{8}8/6,3/7h[8:1],{16}4,8/3,
2,1/5,{8}6/2,{64}8/4,{16},{64}8,{32}4,{64},8,{32}3,{16},{64}1/5,{16},{64}1,{32}5,{64},1,{32}6,{16},{32}2,7,3,7,1,6,3,6,
2,7,3,8,{8}2,1/B5,2/B6,4/B8,6/B2,{64}7/B3,{16},,,{64}4,3x,2x,
{16}1b,{32}5,4,5,4,5,4,{16}8,7x/2,6/3,1,2x/7,3/6,{8}8b/1b,{16}7/3,1h[8:1],6,7,
2/6h[8:1],2,{8}4,{16}5/3,7,6/4,5/3,6/4,5/3,7/5,2/7h[16:7],,3,2,1,
{8}2,4,{16}7,6/3,5/4,2,3/6,4/5,{8}3b/6b,{16}4/5,1h[8:1],6,7,
2,{32}8,3,{16}8,2,{32}6,1,8,3,{16}7,1,6,1/7,3,1/6h[16:5],,2,,1,
{32}3,7,3,7,2,6,2,6,{8}3h[8:1],{16}8,6/2h[8:1],,8,{8}7/1,{16}6/3,7h[8:1],2,3,
6/2h[8:1],6,{8}8,7/3,{16}6/3,4,3/8,6,4,1h[16:7]/7-5[0.2703##0.2703],,7,,A5,
{8}7,8,4/5b,{16}6/3,4,,5,{8}3/8h[2:1],2,{16}4,3,
,2,{8}3,{16}5/4b,6,5/1,3,,6,{8}5/1h[8:3],{16}6,6,7,7,
{32}8,2,6,3,7,1,6,3,{4}8b,{8},{32}1,2x,3/6,7x,{16}8/4,6,7/3,4,
6/2,3,4/1,2,{64}1/5,{16},{64}2,{32}6,{64},3,{32}7,{16},{64}1/4,{16},{64}2,{32}5,{64},3,{32}6,{16},1/2,3/2,3/4,4/5,
5/6,6/7,{8}7/8,{16}4,4,5/4,5,3/5,3,6/3,6,2/6,2,7/2,7,
7/1,1,1/8,8,{32}8/1,7,2,6,3,5,4,5,{16}4,5h[16:3]/4h[16:3],,,,4/5,3/6,2/7,
{32}8/1,7,2,6,3,5,4,5,{16}4,6,4/6x,5,3/5x,4,2/4x,3,1/3x,2,8/2x,1,
7/1x,8,6/8x,7,5/7x,8,1,8,2,8,3,8,4,8,3,8,
2,8,1,7,1h[4:1],7,,7,,5,7/3,4,6/2,5,3/6,4bx/5bx,
3bx/6bx,2bx/7bx,{8}1bx/8bx,
E
