&title=Break The Speakers
&artist=DJ Myosuke
&first=-0.054
&des=Deva // Asyura
&lv_5=14+
&inote_5=(185){4},,,,,8-5[2:1]/1v4[2:1],,,,4>8[2:1]*<8[2:1]/5,,,,8pp4[4:3]/1,,,,8x-2-5b[4:3],A4,B4,Cf,
{16}7h[16:3],,,5,6,,4,,2h[16:3]/5,,,4,3,,5,,6h[16:3]/1,,,8,7,,1,,3h[16:3]/8,,,1,2,,8,,
{8}7/8,8/7,2/6,3/5,7/4,6,5/1,3,{12}8x/4x,7,6,1/5,2,3,{16}4x,8,3,7,{12}1x-5[8:1],5,2,8xbh[8:11]/A1f,,,,,,,,,,,,{36}A1f,B1,C,B5,A5,,,,,A7f,B7,C,B3,A3,,,,,{4}8-6-4b[8:1]/4-2-8b[8:1],8b/4b,
{4}8x/4x-7[8:1],1-5[8:1]/4,1/8v3[8:1],8/5-2[8:1],1>4[8:1]*<6[8:1],1,3/7,{16}1/5,,2/6,3/7,{8}4>1[8:1]/8<5[8:1],,4/8v3[8:1],,4-7[8:1]/8,,{12}4/3x,2x,1x,8x,,,{16}1/5,,3,4,2h[16:1],,8/4,,6,5,7h[16:1],,{4}1/Ch[4:8],8,7,6,5,6,7,8,1-6[8:1],4-2-5[4:1],5-3-1[4:1],{8}7,7,7bh[4:3],,B2f/E2/A2,,A6/E6/B6f,,
{8}4p8[8:1]*q8[8:1],,4b,,A6/E7f/B6/A2/B2/E2,,3>8[8:1]/5,,3/7<4[8:1],7,7/1-6[8:1],,8-3[8:1]/1-3[8:1],,8/1-5[8:1],,1/7-3[8:1],6,7/1h[4:1],,4h[4:1],,6h[4:1],,E8,,{24}2bx-4-8[4:1]/1,3x,4x,,,,2/8,,,{24}7bxw3b[8:1],6x,5x,,,,B7f/E7/E8,,,,,,,,,
{24}4b-7[8:1]/6h[8:1],3x,2x,,,,{8}4b-1[8:1]/2h[8:1],,4b<1b[4:1]/5h[8:1],,{8}4b/2,3,{24}5bx-8[8:1],4x,3x,,,,{8}5b-2[8:1]/2h[8:1],,8/5b,7,6b,{16}1,1,{8}4xb-6[8:1]*-7[8:1],,4b-2[8:1]*-1[8:1]/2h[8:1],,4b/8b,8,{16}7b,6,5/1,2,3/8bh[4:3],,,,,,,,6-2[8:1],,,,6,,,,
{8}5-7v6-8>1[4:3],,1,,2,,{12}3,3,3,3<4-6[8:1],,,8,,,{16}7,5,6,,{12}8h[12:2],,4,{4}2/6h[4:1],4h[4:1],2h[4:1],{8}8,8,8bh[4:2]/B6/B5/E6f,,B1/B2/E2f,,7-4[8:1]/3-8[8:1],,7b/3b,,
{16}1,5,1,,2/6,,3,,4/6-2[8:1],7,8h[8:1],,6bx,,4x,,7,8,7,,6/5,,4,,5/3-7[8:1],2,1h[8:1],,3bx,,5x,,8,4,8,,2/1,,8,,1/7-3[8:1],6,5h[8:1],,7bx,,8x,,1,2,1,2,8,3,8,3,7,4,6,5,6x/4x,,7x/3x,,
{16}8,2,1,1,2x/8x,,7x/2x,,2-5<6[8:1]/8,3,4h[8:1],,2bx,,8x,,7,1,7,,4/3,,5,,4/6-1>2[8:1],7,8h[8:1],,6bx,,4x,,5,3,5,4,{36}D6/A6,D7,A7/D8,A8,D1/A1,D2,A2/D3,A3,D4/A4,{16}D5f/1x-5[8:1],2x,3x/8-4[8:1],,1,,8,,2,5,2,5,3,6,3,6,8x,7,3x,4,2x,1,5x,6,Cf,,,,,,,,,,,,,,,,
{4}3v5-7[4:3],,,,8v2-4[4:3],,,,Ch[4:3],,,{8}8xh[16:1],8xh[16:1],4,4,3h[8:3]/5,,,4,3/5,,6,6,7/5,{16}5,6,4,,4,,{8}2/6,,8,8,1/7h[8:3],,,8,1/7,{16}2,8,3,,,7,8,,8,,6,1,5,2,
{16}8bh[4:7],,,,B1,,,E2,,,B2,,,E3,,,B4/E5,,E7/B6,,,,6,,E6,B5,B4,,4h[16:3],,,6h[16:3],,,1h[8:13],,B8,,,E8,,,B7,,,E7,,,B5/E5,,E3/B3,,,,3,,E4,B4,B5,,5h[16:3],,,3h[16:3],,,8,,{16}4/E8/B8,,,B6,4,,B5,,4,E6,,,4/7h[8:1],,,,4,,8,,4/8-6-4[16:6],,,,3x,,,2x,,,1x,,8x/B4/E4,,,B1,8,,B2,,8,E2,,,8/3,,3,,7/4,,6,,1qq5[8:4],5,1,5,1h[8:2],,,,,,,,
{16}3h[8:1],,,,2/4,,5,4,6,,6,,7/5,,8/4,,2h[8:1],,,,3/1,,8,1,7,,7,,6/8,,1/5,,4h[8:1],,,,5/3,,6,5,7,,8,,7/1,,8/3,,A4,E5,E6,A6,E4,B4,B6,E7,E3,B2,B8,E8,A2,E2,E1,A8,2b,4,3,4,1b,5,4,5,8b,6,5,6,A1/B1/E2f,,,,7b,5,6,5,8b,4,5,4,1b,3,4,3,A8/B8/E8f,,,,2,1,2,1,2bx,3,4,5,7,8,7,8,7bx,6,5,4,{12}2x,1,3,7x,8,6,{16}1,5,1,6,{12}3,8,4,6bx-1[8:1]*v3[8:1]/B5/B4/E5f,,,,,,
{12}2-4b[8:1]/8-6b[8:1],,,{16}E3/E8,E4/E7,A4/A6,,5p1[8:1]*q1[8:1],,5,,,,,,1xv4b[8:1]/7xv4b[8:1],,2x/6x,,,,,,3>8[8:1]/4,,,,6h[8:1]/3,,,,7<4b[8:1]/8h[8:1],,,,1h[8:1]/7,,,,{24}2-8-6[4:1]/4bx,5x,6x,,,,{16}2/4,,4w8b[8:1],,,,E5/B4f/E4,,,,,,
{24}7/1b-7[8:1],2,3,{16}4,6,{16}1-4[8:1],,5,,1-6[8:1],8,,,5/1-3[8:1],,5,,7-4b[8:1]/1,,8,,7x/3x,2,1,,8bx/4,,,3b/5,,,2/1b,,{24}3/8b-2[8:1],7,6,{16}5,3,{16}8-5[8:1],,4,,8-3[8:1],1,,,4/8-6[8:1],,4,,2-5b[8:1]/8,,1,,2x/6x,7,8,,1bx/5,,,4/7b,,,2/6b,,{24}7/1b-6[8:1],2,3,{16}4,6,{16}1>4[8:1],,5,,1v6[8:1],8,,,5/1,,7<4b[8:1],,,,7x-3[8:1]/2x,,1,8,7x,,4bx,,,1/6b,,,8/3b,,{8}4-8[8:1],4,5-1[8:1],5,6-2[8:1],6,7-3[8:1],7,{24}8x,1x,2xh[24:4],,,,8xq5[8:1]*p3[8:1],7x,6x,,,,8b,,,,,,
{16}B6/Cf/B2,,7bx,1bx,6bx-8[8:1],,,1,6x-4[8:1],,3,,6-2[8:1],1,,,3-7[8:1]/6,,4,,3/5-7-1b[4:1],,4,,5/2,3,4,,5bxh[16:2],,,3/6bh[16:2],,,1b/5,,{16}2bx-8[8:1],,,7,2-4[8:1],,5,,2-6[8:1],7,,,5-1[8:1]/2,,4,,5/3-1-7b[4:1],,4,,3/6,5,4,,3bxh[16:2],,,1/5bh[16:2],,,8b/4,,
{24}7/2,,,6,5,6,5,,,3,4,3,4v7b[8:1],,,1x/5x,,,B2/B3/E3f,,,,,,3/6,,,2,1,2,{16}7,8,6x/1x,,6hbx[16:2]/1hx[16:2],,,7hb[16:2]/2h[16:2],,,8b/3,,4,1,4,1,3,8,2,7,8,4,1,6,2,7h[16:5],3h[16:4],,,,,,7/3,,4/8,,{32}1x/5,2,3,4,5,6,7,8,{16}1b,,,,
{8}7h[8:1]/3-1[8:1],,7h[8:1],,6h[8:1]/8-4[8:1],,6h[8:1],,7-3[8:1]/2h[8:1],,3pp7[16:6],,{16},,8bx,,,1bx,,,{8}2h[8:1]/6x-8[8:1],,2h[8:1],,3h[8:1]/1-5[8:1],,3h[8:1],,2-6[8:1]/7h[8:1],,6pp2[16:6],,{16},,4bx,,,5bx,,,
{8}6x/3x,7,8/2,3,4>6[4:1]/6,5/3,{36}4x/1h[8:1],D4,A3,D3/A2,D2,A1,D1/A8,D8,A7,D7/A6/{8}3x,2,1/7,6,5<3[4:1]/3,4/6,{36}5x/8h[8:1],D6,A6,D7/A7,D8,A8,D1/A1,D2,A2,{24}D3/A3/7x,6,5,{16}1,1,4x,2,6,3,{24}8x,1,2,{16}4,4,{24}8x,7,6,2x,3,4,{32}7bx,6,5,4,3,2,1,8,7bx,6,5,4,3,2,1,8,7bx,6,5,4,3,2,1,8,
{16}7bx/Cf,,,,{24}1b-4[8:1]/6-8b[8:1],5x,4x,,,,{8}1bv6[8:1]/6,,1b-3-5b[4:1]/4h[8:1],,{8}1b/6x,7,{24}8bv3[8:1],,,,,,{8}8b-6-4b[4:1]/6h[8:1],,8b/3x,2,1b,{16}8,8,{8}4xb-6b[8:1]*-7[8:1],,4b-2b[8:1]*-1[8:1]/2h[8:1],,4b/8b,8,{16}7b,6,5/1,2,3/8bh[4:3],,,,,,,,6-2b[8:1],,,,6,,,,
{24}1bx-5[8:1]/8bx-4[8:1],2/7,3/6,4/5,,,1bx/8bx<5[8:1],,,,,,1bx/8bx,2x,3x,4x,,,{24}8b/6b,,,8/6,,,1b/3b,,,1/3,,,6b-2-8[4:1]/5x,4,3,,,,/1b,,,3b,,,4bh[16:8],,,8b,,,8b,7,6,,,,8b<5[4:1],1,2,,,,4b,,,3b,,,{16}2b/6x,1b/5x,8b/4x,7b/3x,2xh[8:1]/6b-8-3[8:1],,,,4,,{24}5xw1b[8:1],6x,7x,,,,B5/Cf/B1/B2/B4/B6/B8/B7/B3,
